<?xml version="1.0" standalone="no"?>
<!DOCTYPE svg PUBLIC "-//W3C//DTD SVG 1.1//EN" "http://www.w3.org/Graphics/SVG/1.1/DTD/svg11.dtd" >
<svg xmlns="http://www.w3.org/2000/svg">
<metadata></metadata>
<defs>
<font id="vegurbold" horiz-adv-x="1069" >
<font-face units-per-em="2048" ascent="1567" descent="-481" />
<missing-glyph horiz-adv-x="380" />
<glyph unicode="&#xfb01;" horiz-adv-x="1185" d="M27 766v213h137v14q0 249 144.5 391t406.5 142q202 0 315 -94l-37 -228q-63 51 -127.5 73.5t-148.5 22.5q-146 0 -217.5 -80t-71.5 -204v-37h643v-979h-270v766h-367v-766h-270v766h-137z" />
<glyph unicode="&#xfb02;" horiz-adv-x="1206" d="M27 766v213h137v37q0 235 148 372.5t374 137.5q251 0 406 -84v-1442h-271v1278q-48 22 -143 22q-112 0 -178 -76t-66 -186v-59h234v-213h-234v-766h-270v766h-137z" />
<glyph horiz-adv-x="2048" />
<glyph horiz-adv-x="2048" />
<glyph unicode="&#xd;" horiz-adv-x="2048" />
<glyph unicode=" "  horiz-adv-x="380" />
<glyph unicode="&#x09;" horiz-adv-x="380" />
<glyph unicode="&#xa0;" horiz-adv-x="380" />
<glyph unicode="!" horiz-adv-x="516" d="M102 135q0 65 46 110.5t110 45.5t110 -45.5t46 -110.5q0 -64 -45.5 -109.5t-110.5 -45.5t-110.5 45.5t-45.5 109.5zM131 1409h254l-25 -999h-204z" />
<glyph unicode="&#x22;" horiz-adv-x="829" d="M113 1505h227l-37 -592h-174zM481 1505h228l-37 -592h-174z" />
<glyph unicode="#" d="M82 369v172h180l55 274h-163v172h196l80 410h188l-77 -410h125l79 410h187l-78 -410h137v-172h-170l-53 -274h152v-172h-185l-78 -410h-192l80 410h-125l-78 -410h-192l79 410h-147zM453 537h125l55 282h-125z" />
<glyph unicode="$" d="M102 119l31 227q159 -65 311 -65q86 0 140.5 38.5t54.5 98.5q0 59 -42.5 98.5t-150.5 73.5q-151 48 -228 130.5t-77 215.5q0 134 80.5 220.5t210.5 119.5v174h193v-158q179 -9 272 -75l-29 -226q-109 84 -268 84q-80 0 -127 -33t-47 -92q0 -57 48 -96t165 -74 q148 -44 216.5 -124t68.5 -205q0 -131 -86.5 -227.5t-223.5 -137.5v-180h-192v155q-171 3 -320 58z" />
<glyph unicode="%" horiz-adv-x="1716" d="M82 1016q0 169 95 264.5t239 95.5q143 0 238.5 -96t95.5 -264q0 -167 -96 -264t-238 -97q-143 0 -238.5 96.5t-95.5 264.5zM295 1016q0 -82 30.5 -135.5t90.5 -53.5t90.5 53.5t30.5 135.5t-30.5 135t-90.5 53t-90.5 -53t-30.5 -135zM397 -41l705 1438h217l-709 -1438 h-213zM967 340q0 169 94.5 264.5t238.5 95.5q143 0 238.5 -96t95.5 -264q0 -167 -96 -263.5t-238 -96.5q-143 0 -238 96t-95 264zM1180 340q0 -82 30 -135t90 -53t90.5 53t30.5 135t-30.5 135t-90.5 53t-90 -53t-30 -135z" />
<glyph unicode="&#x26;" horiz-adv-x="1366" d="M90 377q0 121 65 211t195 172q-66 84 -94.5 151.5t-28.5 145.5q0 98 43 182t131.5 137.5t204.5 53.5q164 0 265.5 -93t101.5 -225q0 -122 -58.5 -206.5t-216.5 -184.5l240 -266q70 124 88 254h246q-35 -259 -166 -441l244 -268h-349l-79 92q-165 -112 -390 -112 q-185 0 -313.5 110t-128.5 287zM381 406q0 -83 55 -140t148 -57q95 0 186 59l-285 330q-60 -42 -82 -84.5t-22 -107.5zM498 1073q0 -101 65 -194q80 50 106.5 100t26.5 117q0 48 -24.5 80t-69.5 32q-46 0 -75 -37.5t-29 -97.5z" />
<glyph unicode="'" horiz-adv-x="460" d="M113 1505h227l-37 -592h-174z" />
<glyph unicode="(" horiz-adv-x="751" d="M168 668q0 269 96.5 497.5t243.5 380.5l127 -90q-124 -178 -189 -365.5t-65 -422.5t65 -423t189 -366l-127 -90q-147 152 -243.5 381t-96.5 498z" />
<glyph unicode=")" horiz-adv-x="749" d="M117 -121q124 178 189 366t65 423t-65 422.5t-189 365.5l127 90q147 -152 243.5 -380.5t96.5 -497.5t-96.5 -498t-243.5 -381z" />
<glyph unicode="*" horiz-adv-x="942" d="M43 944l72 223l286 -143l-47 317h234l-47 -317l286 143l72 -223l-315 -53l225 -229l-191 -138l-147 285l-147 -285l-191 138l225 229z" />
<glyph unicode="+" horiz-adv-x="1110" d="M100 467v172h359v405h192v-405h359v-172h-359v-406h-192v406h-359z" />
<glyph unicode="," horiz-adv-x="632" d="M16 -301l154 571h262l-231 -561z" />
<glyph unicode="-" horiz-adv-x="712" d="M115 467v172h483v-172h-483z" />
<glyph unicode="." horiz-adv-x="632" d="M152 135q0 65 45.5 110.5t109.5 45.5q65 0 110.5 -45.5t45.5 -110.5q0 -64 -45.5 -109.5t-110.5 -45.5t-110 45t-45 110z" />
<glyph unicode="/" horiz-adv-x="847" d="M-31 -199l701 1733h209l-703 -1733h-207z" />
<glyph unicode="0" d="M57 678q0 154 24.5 275.5t67.5 201.5t104 132t130.5 74.5t151.5 22.5t151.5 -22.5t130.5 -74.5t103.5 -132t67 -201.5t24.5 -275.5t-24.5 -275.5t-67 -201.5t-103.5 -132.5t-130.5 -75t-151.5 -22.5q-103 0 -186.5 37t-150.5 117t-104 220.5t-37 332.5zM348 678 q0 -477 187 -477q186 0 186 477t-186 477q-187 0 -187 -477z" />
<glyph unicode="1" d="M199 1067l440 289h235v-1356h-270v1042l-397 -229z" />
<glyph unicode="2" d="M88 0v211l363 369q115 119 170 208t55 168q0 199 -221 199q-148 0 -283 -123l-12 244q152 108 346 108q116 0 206 -31.5t144.5 -86t82.5 -124t28 -149.5q0 -135 -77.5 -261t-232.5 -271l-245 -232h538v-229h-862z" />
<glyph unicode="3" d="M78 39l20 235q155 -73 314 -73q114 0 179.5 46t65.5 128q0 104 -88.5 151t-281.5 47v213q179 0 269.5 57t90.5 150q0 76 -56.5 119t-162.5 43q-69 0 -144 -24.5t-130 -65.5l-11 238q144 81 332 81q229 0 346 -92t117 -250q0 -129 -103 -216t-251 -105q181 -17 272.5 -110 t91.5 -234q0 -183 -150 -294.5t-401 -111.5q-183 0 -319 68z" />
<glyph unicode="4" d="M49 309v213l447 834h364v-817h182v-230h-182v-307h-270v307h-541zM328 539h266v274q0 183 12 305z" />
<glyph unicode="5" d="M109 51l16 238q146 -80 328 -80q115 0 179 55.5t64 147.5q0 112 -74.5 164t-240.5 55l-201 4l49 713h709v-230h-473l-19 -274l37 -2q484 -27 484 -418q0 -136 -72 -238.5t-189.5 -154t-261.5 -51.5q-198 0 -335 71z" />
<glyph unicode="6" d="M70 512q0 186 44.5 334t120 244.5t182 161t224 93.5t252.5 31l18 -235q-251 -6 -402.5 -118t-172.5 -323q48 68 112 96.5t152 28.5q118 0 209.5 -57.5t137.5 -147.5t46 -194q0 -85 -26.5 -158.5t-72 -125.5t-105 -89t-125.5 -55t-134 -18q-91 0 -172.5 33.5t-146.5 97 t-103 167.5t-38 234zM336 414q0 -96 58.5 -152.5t140.5 -56.5q84 0 136 57t52 141q0 87 -54.5 145t-144.5 58q-86 0 -137 -51t-51 -141z" />
<glyph unicode="7" d="M104 1118v230h869v-174l-537 -1172h-272l510 1116h-570z" />
<glyph unicode="8" d="M76 324q0 244 252 356q-103 47 -158 132t-55 198q0 162 122 264t314 102q194 0 312 -98t118 -252q0 -114 -58 -199t-165 -129q131 -75 183 -158t52 -196q0 -168 -128.5 -266t-338.5 -98t-330 93.5t-120 250.5zM367 362q0 -66 47.5 -109.5t117.5 -43.5q78 0 124 45.5 t46 107.5q0 79 -37 130.5t-143 101.5q-87 -60 -121 -109.5t-34 -122.5zM406 991q0 -149 147 -207q137 55 137 203q0 71 -36.5 115.5t-102.5 44.5q-67 0 -106 -44t-39 -112z" />
<glyph unicode="9" d="M66 930q0 85 26.5 158.5t72 125.5t104.5 89t125 55t134 18q91 0 172.5 -33.5t147 -97t103.5 -167.5t38 -234q0 -186 -44.5 -334t-120 -244.5t-182 -161t-224 -93.5t-252.5 -31l-19 235q252 6 403.5 117.5t172.5 322.5q-48 -68 -112 -96.5t-152 -28.5q-118 0 -209.5 57.5 t-137.5 148t-46 194.5zM336 952q0 -87 54.5 -144.5t144.5 -57.5q86 0 137 51t51 141q0 96 -58.5 152.5t-140.5 56.5q-84 0 -136 -57.5t-52 -141.5z" />
<glyph unicode=":" horiz-adv-x="632" d="M152 135q0 65 45.5 110.5t109.5 45.5q65 0 110.5 -45.5t45.5 -110.5q0 -64 -45.5 -109.5t-110.5 -45.5t-110 45t-45 110zM152 844q0 64 45 109.5t110 45.5t110.5 -45.5t45.5 -109.5t-45.5 -110t-110.5 -46q-64 0 -109.5 45.5t-45.5 110.5z" />
<glyph unicode=";" horiz-adv-x="632" d="M16 -301l154 571h262l-231 -561zM152 844q0 64 45 109.5t110 45.5t110.5 -45.5t45.5 -109.5t-45.5 -110t-110.5 -46q-66 0 -110.5 45.5t-44.5 110.5z" />
<glyph unicode="&#x3c;" horiz-adv-x="1136" d="M135 403v222l821 389v-221l-630 -277l630 -278v-226z" />
<glyph unicode="=" horiz-adv-x="1183" d="M115 260v172h954v-172h-954zM115 674v172h954v-172h-954z" />
<glyph unicode="&#x3e;" horiz-adv-x="1136" d="M135 12v221l631 277l-631 278v226l821 -391v-222z" />
<glyph unicode="?" horiz-adv-x="913" d="M94 1331q63 45 154 72t190 27q183 0 300.5 -96t117.5 -247q0 -102 -45 -186.5t-162 -224.5q-61 -73 -90 -134t-33 -132h-272q3 90 32 160.5t105 164.5q104 130 137 193.5t33 130.5q0 62 -51.5 101.5t-138.5 39.5q-151 0 -269 -100zM236 135q0 65 45.5 110.5t109.5 45.5 q65 0 110.5 -45.5t45.5 -110.5q0 -64 -45.5 -109.5t-110.5 -45.5t-110 45t-45 110z" />
<glyph unicode="@" horiz-adv-x="1697" d="M98 399q0 152 45 287t124.5 236t185 175t230 112t255.5 38q145 0 270 -53.5t208 -143t130 -206t47 -242.5q0 -124 -33.5 -222t-89.5 -157t-124.5 -89t-143.5 -30q-80 0 -143.5 45t-75.5 113q-83 -168 -250 -168q-112 0 -187 80.5t-75 216.5q0 218 132.5 347.5 t346.5 129.5q81 0 156 -19.5t121 -49.5l-56 -348q-13 -87 7.5 -125.5t74.5 -38.5q68 0 114 82t46 217q0 233 -125.5 364t-376.5 131q-161 0 -306 -83.5t-235.5 -234t-90.5 -329.5q0 -260 146 -403.5t396 -143.5q216 0 418 119l18 -166q-205 -119 -458 -119q-141 0 -267.5 46 t-223.5 130.5t-153.5 214.5t-56.5 287zM705 414q0 -62 27.5 -91.5t70.5 -29.5q58 0 96.5 53.5t54.5 142.5l33 173q-36 8 -94 8q-77 0 -132.5 -68.5t-55.5 -187.5z" />
<glyph unicode="A" horiz-adv-x="1296" d="M6 0l479 1409h324l479 -1409h-299l-127 422h-438l-127 -422h-291zM494 651h299l-150 498z" />
<glyph unicode="B" horiz-adv-x="1107" d="M115 0v1407q189 23 368 23q255 0 395 -101q142 -102 142 -279q0 -130 -78 -214t-211 -115q144 -23 220.5 -113t76.5 -221q0 -83 -29.5 -152t-81 -117t-122.5 -81.5t-154 -49.5t-176 -16q-211 0 -350 29zM385 205q37 -4 113 -4q102 0 172.5 48t70.5 134q0 99 -66 151 t-194 52h-96v-381zM385 805h72q131 0 203.5 53t72.5 150q0 83 -59.5 137.5t-171.5 54.5q-76 0 -117 -4v-391z" />
<glyph unicode="C" horiz-adv-x="1257" d="M78 698q0 141 39.5 262t109.5 208t164.5 148.5t205.5 91.5t232 30q249 0 390 -82l-27 -234q-159 86 -363 86q-94 0 -176.5 -32t-146 -91.5t-100.5 -153.5t-37 -210q0 -243 123.5 -381.5t330.5 -138.5q176 0 355 90l20 -232q-166 -88 -416 -88q-156 0 -285 47t-222.5 137 t-145 228.5t-51.5 314.5z" />
<glyph unicode="D" horiz-adv-x="1394" d="M115 -2v1403q211 29 415 29q386 0 591.5 -187t205.5 -514q0 -176 -64.5 -320t-178 -239.5t-268.5 -147t-335 -51.5q-200 0 -366 27zM385 209q65 -8 133 -8q236 0 377 136.5t141 367.5q0 106 -28.5 194t-85.5 156.5t-151.5 106.5t-217.5 38q-77 0 -168 -12v-979z" />
<glyph unicode="E" horiz-adv-x="1034" d="M115 0v1401h852v-230h-582v-346h516v-229h-516v-367h590v-229h-860z" />
<glyph unicode="F" horiz-adv-x="991" d="M115 0v1401h852v-230h-582v-415h516v-230h-516v-526h-270z" />
<glyph unicode="G" horiz-adv-x="1329" d="M78 680q0 181 59.5 327t163 239t239 142.5t291.5 49.5q255 0 396 -82l-27 -234q-159 86 -369 86q-93 0 -176 -33.5t-147 -95.5t-101.5 -159.5t-37.5 -217.5q0 -256 105.5 -378.5t301.5 -122.5q92 0 174 26v285h-219v229h490v-692q-199 -78 -463 -78q-150 0 -273 44 t-214.5 129.5t-142 222.5t-50.5 313z" />
<glyph unicode="H" horiz-adv-x="1409" d="M115 0v1409h270v-584h639v584h270v-1409h-270v596h-639v-596h-270z" />
<glyph unicode="I" horiz-adv-x="499" d="M115 0v1409h270v-1409h-270z" />
<glyph unicode="J" horiz-adv-x="645" d="M-119 -221q138 37 220 91.5t124.5 146t42.5 229.5v1163h271v-1169q0 -122 -29.5 -224t-80.5 -176t-124.5 -130.5t-157.5 -91.5t-184 -56z" />
<glyph unicode="K" horiz-adv-x="1169" d="M115 0v1409h270v-668l496 668h325l-577 -698l547 -711h-342l-406 561l-43 -51v-510h-270z" />
<glyph unicode="L" horiz-adv-x="1032" d="M135 0v1409h271v-1180h595v-229h-866z" />
<glyph unicode="M" horiz-adv-x="1716" d="M111 0l28 1409h383l277 -903q43 -138 63 -262q19 117 64 262l276 903h383l29 -1409h-275l-8 692v61q0 224 25 472q-51 -315 -127 -533l-230 -672h-282l-236 672q-72 207 -121 492q25 -247 25 -449v-43l-8 -692h-266z" />
<glyph unicode="N" horiz-adv-x="1368" d="M106 0v1409h402l358 -774q82 -176 144 -369q-11 226 -11 369v774h263v-1409h-402l-358 774q-82 176 -144 369q11 -226 11 -369v-774h-263z" />
<glyph unicode="O" horiz-adv-x="1527" d="M78 705q0 164 52.5 301.5t144.5 232t219.5 147t275.5 52.5t275.5 -52.5t219.5 -147t144.5 -232t52.5 -301.5t-52.5 -301.5t-144.5 -232.5t-219.5 -147.5t-275.5 -52.5t-275.5 52.5t-219.5 147.5t-144.5 232.5t-52.5 301.5zM369 705q0 -232 105.5 -368t295.5 -136 t295.5 136t105.5 368t-105.5 367.5t-295.5 135.5t-295.5 -135.5t-105.5 -367.5z" />
<glyph unicode="P" horiz-adv-x="1036" d="M115 0v1399q160 31 368 31q144 0 252.5 -35t172 -97t94 -139.5t30.5 -169.5q0 -108 -44 -196.5t-119.5 -146t-175 -89t-212.5 -31.5q-43 0 -96 6v-532h-270zM385 758q46 -6 90 -6q120 0 193 58.5t73 168.5q0 93 -64 157t-183 64q-54 0 -109 -6v-436z" />
<glyph unicode="Q" horiz-adv-x="1515" d="M66 705q0 164 52.5 301.5t144.5 232t219.5 147t275.5 52.5t275.5 -52.5t219.5 -147t144.5 -232t52.5 -301.5q0 -245 -118.5 -425t-317.5 -253l276 -324l-217 -121l-317 389q-147 0 -274 52.5t-219 147.5t-144.5 232.5t-52.5 301.5zM356 705q0 -232 105.5 -370t294.5 -138 t296 138t107 370t-105.5 367.5t-295.5 135.5t-296 -135.5t-106 -367.5z" />
<glyph unicode="R" horiz-adv-x="1101" d="M115 0v1405q186 25 389 25q257 0 391.5 -105.5t134.5 -288.5q0 -136 -80.5 -221.5t-216.5 -112.5q161 -22 221 -315q50 -232 109 -387h-295q-45 151 -88 371q-9 44 -19 71.5t-31 54t-58 38.5t-91 12h-96v-547h-270zM385 766h72q133 0 207.5 63t74.5 162q0 96 -57 152.5 t-174 56.5q-56 0 -123 -6v-428z" />
<glyph unicode="S" horiz-adv-x="1046" d="M74 35l20 237q66 -34 149.5 -52.5t153.5 -18.5q125 0 201 50t76 136q0 81 -60 134t-184 93q-168 53 -244.5 150t-76.5 250q0 107 44 190.5t119.5 133.5t168.5 75t198 25q88 0 168.5 -19.5t128.5 -48.5l-21 -244q-57 37 -133.5 59.5t-146.5 22.5q-111 0 -176.5 -48.5 t-65.5 -131.5q0 -86 57 -138.5t191 -94.5q324 -103 324 -379q0 -142 -78 -244.5t-205.5 -151.5t-290.5 -49q-76 0 -165.5 17t-151.5 47z" />
<glyph unicode="T" horiz-adv-x="1140" d="M8 1171v230h1122v-230h-425v-1171h-271v1171h-426z" />
<glyph unicode="U" horiz-adv-x="1329" d="M106 485v924h271v-854q0 -171 76.5 -258.5t218.5 -87.5q137 0 213 80t76 237v883h270v-862q0 -145 -43 -257t-121 -182t-181 -105.5t-227 -35.5q-162 0 -286 59t-195.5 177.5t-71.5 281.5z" />
<glyph unicode="V" horiz-adv-x="1249" d="M-23 1409h297l353 -1163l350 1163h289l-488 -1409h-313z" />
<glyph unicode="W" horiz-adv-x="1912" d="M-16 1409h299l188 -819q50 -221 66 -350q30 186 73 350l207 819h295l197 -819q43 -176 71 -350q25 173 68 350l197 819h284l-395 -1409h-320l-170 674q-59 239 -92 413q-46 -231 -92 -413l-168 -674h-319z" />
<glyph unicode="X" horiz-adv-x="1224" d="M-23 0l449 715l-416 694h324l266 -512l297 512h313l-450 -713l432 -696h-328l-284 510l-293 -510h-310z" />
<glyph unicode="Y" horiz-adv-x="1181" d="M-8 1409h334l274 -573l281 573h311l-465 -811v-598h-270v598z" />
<glyph unicode="Z" horiz-adv-x="1155" d="M63 0v215l703 956h-649v230h991v-221l-705 -951h715v-229h-1055z" />
<glyph unicode="[" horiz-adv-x="866" d="M225 -199v1733h504v-172h-311v-1389h311v-172h-504z" />
<glyph unicode="\" horiz-adv-x="847" d="M-31 1534h209l701 -1733h-207z" />
<glyph unicode="]" horiz-adv-x="866" d="M137 -27h312v1389h-312v172h504v-1733h-504v172z" />
<glyph unicode="^" horiz-adv-x="1036" d="M90 461l309 647h244l303 -647h-213l-213 504l-219 -504h-211z" />
<glyph unicode="_" horiz-adv-x="1024" d="M0 -100h1024v-172h-1024v172z" />
<glyph unicode="`" horiz-adv-x="1024" d="M299 1380l287 -16l141 -272l-199 14z" />
<glyph unicode="a" horiz-adv-x="987" d="M68 270q0 154 124.5 241t323.5 87q44 0 94 -4v22q0 75 -45 116.5t-139 41.5q-64 0 -140.5 -20t-133.5 -56l-17 230q62 37 152.5 58.5t179.5 21.5q213 0 313.5 -97.5t100.5 -273.5v-637h-228l-20 125q-42 -78 -105 -111.5t-163 -33.5q-135 0 -216 77.5t-81 212.5zM340 289 q0 -51 34 -83t89 -32q61 0 104 57t43 142v55q-50 4 -80 4q-87 0 -138.5 -38.5t-51.5 -104.5z" />
<glyph unicode="b" horiz-adv-x="1167" d="M115 0v1505h270v-667q96 170 311 170q124 0 218 -66t143 -179t49 -255q0 -243 -124 -385.5t-323 -142.5q-104 0 -184.5 50t-112.5 138l-20 -168h-227zM385 432q0 -108 66.5 -177t152.5 -69q100 0 161.5 78t61.5 223q0 132 -58.5 213.5t-176.5 81.5q-87 0 -147 -69 t-60 -185v-96z" />
<glyph unicode="c" horiz-adv-x="892" d="M61 483q0 154 71 275t190 185.5t262 64.5q171 0 266 -50l-19 -221q-95 45 -217 45q-121 0 -197.5 -78.5t-76.5 -207.5q0 -136 75.5 -217.5t194.5 -81.5q113 0 211 49l19 -213q-109 -53 -287 -53q-222 0 -357 134t-135 369z" />
<glyph unicode="d" horiz-adv-x="1167" d="M61 479q0 244 124.5 386.5t322.5 142.5q90 0 162 -37.5t112 -104.5v639h271v-1505h-228l-24 188q-89 -208 -330 -208q-124 0 -218 66t-143 178.5t-49 254.5zM340 500q0 -132 58.5 -213.5t176.5 -81.5q87 0 147 69t60 185v96q0 108 -66.5 177t-152.5 69q-100 0 -161.5 -78 t-61.5 -223z" />
<glyph unicode="e" horiz-adv-x="978" d="M61 463q0 248 130.5 396.5t332.5 148.5q83 0 151 -26t114.5 -71.5t78.5 -108.5t47 -136.5t15 -155.5q0 -60 -10 -115h-601q10 -97 76.5 -148.5t177.5 -51.5q155 0 271 61l18 -205q-129 -71 -342 -71q-210 0 -334.5 123.5t-124.5 359.5zM322 590h362q0 93 -41.5 151 t-130.5 58q-75 0 -126.5 -55t-63.5 -154z" />
<glyph unicode="f" horiz-adv-x="718" d="M27 766v213h137v57q0 120 37.5 214.5t103.5 154t153.5 90.5t190.5 31q99 0 168 -27l-18 -223q-58 24 -148 24q-100 0 -158.5 -65.5t-58.5 -175.5v-80h268v-213h-268v-766h-270v766h-137z" />
<glyph unicode="g" horiz-adv-x="1167" d="M61 479q0 244 124.5 386.5t322.5 142.5q104 0 184.5 -50.5t112.5 -138.5l20 168h228v-852q0 -150 -44 -263t-123 -180t-181 -99.5t-226 -32.5q-201 0 -325 84l10 239q146 -102 319 -102q148 0 227 85q74 79 74 215v21v52q-97 -174 -313 -174q-124 0 -218 66t-143 178.5 t-49 254.5zM340 500q0 -132 58.5 -213.5t176.5 -81.5q87 0 147 69t60 185v96q0 108 -66.5 177t-152.5 69q-100 0 -161.5 -78t-61.5 -223z" />
<glyph unicode="h" horiz-adv-x="1112" d="M115 0v1505h270v-653q39 76 109 114t159 38q163 0 258 -97.5t95 -251.5v-655h-271v547q0 98 -44 156.5t-128 58.5t-131 -68t-47 -186v-508h-270z" />
<glyph unicode="i" horiz-adv-x="499" d="M94 1233q0 60 45.5 101.5t110.5 41.5t110.5 -41.5t45.5 -101.5t-45.5 -101.5t-110.5 -41.5t-110.5 41.5t-45.5 101.5zM115 0v987h270v-987h-270z" />
<glyph unicode="j" horiz-adv-x="550" d="M-147 -219q173 79 245 197t72 315v694h270v-688q0 -151 -32.5 -270t-96.5 -206.5t-146 -149.5t-194 -113zM150 1233q0 60 45 101.5t110 41.5t110.5 -41.5t45.5 -101.5t-45.5 -101.5t-110.5 -41.5t-110 41.5t-45 101.5z" />
<glyph unicode="k" horiz-adv-x="987" d="M115 0v1505h270v-938l309 420h326l-391 -446l389 -541h-344l-250 377l-39 -45v-332h-270z" />
<glyph unicode="l" horiz-adv-x="499" d="M115 0v1505h270v-1505h-270z" />
<glyph unicode="m" horiz-adv-x="1691" d="M115 0v987h227l23 -186q30 101 106 154t178 53q117 0 195.5 -52t113.5 -143q43 91 119.5 143t171.5 52q161 0 248.5 -96.5t87.5 -252.5v-659h-270v551q0 215 -154 215q-81 0 -128.5 -70t-47.5 -188v-508h-270v551q0 215 -154 215q-81 0 -128.5 -70t-47.5 -188v-508h-270z " />
<glyph unicode="n" horiz-adv-x="1112" d="M115 0v987h227l23 -186q31 102 107.5 154.5t180.5 52.5q163 0 258 -97.5t95 -251.5v-659h-271v551q0 98 -44 156.5t-128 58.5t-131 -70t-47 -188v-508h-270z" />
<glyph unicode="o" horiz-adv-x="1110" d="M61 494q0 161 67 279.5t177.5 176.5t249.5 58t249.5 -58t177.5 -176.5t67 -279.5q0 -160 -67 -278.5t-177.5 -177t-249.5 -58.5t-249.5 58.5t-177.5 177t-67 278.5zM346 494q0 -148 56.5 -227t152.5 -79t152.5 79t56.5 227q0 149 -56.5 227t-152.5 78t-152.5 -78 t-56.5 -227z" />
<glyph unicode="p" horiz-adv-x="1167" d="M115 -420v1399h227l23 -182q89 211 331 211q124 0 218 -66t143 -179t49 -255q0 -243 -124 -385.5t-323 -142.5q-90 0 -162 37t-112 104v-541h-270zM385 432q0 -108 66.5 -177t152.5 -69q100 0 161.5 78t61.5 223q0 132 -58.5 213.5t-176.5 81.5q-87 0 -147 -69t-60 -185 v-96z" />
<glyph unicode="q" horiz-adv-x="1167" d="M61 479q0 244 124.5 386.5t322.5 142.5q104 0 184.5 -50.5t112.5 -140.5l20 162h228v-1399h-271v570q-96 -170 -311 -170q-124 0 -218 66t-143 178.5t-49 254.5zM340 500q0 -132 58.5 -213.5t176.5 -81.5q87 0 147 69t60 185v96q0 108 -66.5 177t-152.5 69 q-100 0 -161.5 -78t-61.5 -223z" />
<glyph unicode="r" horiz-adv-x="731" d="M115 0v987h227l20 -166q25 82 95 134.5t143 52.5q59 0 98 -17l-10 -239q-42 18 -113 18q-92 0 -141 -79t-49 -208v-483h-270z" />
<glyph unicode="s" horiz-adv-x="800" d="M72 33l20 215q112 -51 238 -51q66 0 103.5 24.5t37.5 65.5q0 38 -31.5 62t-97.5 42q-130 34 -190 103.5t-60 185.5q0 103 55 179t141 111.5t189 35.5q150 0 248 -43l-16 -222q-92 50 -201 50q-63 0 -102 -26t-39 -71q0 -78 110 -104q141 -33 203.5 -103.5t62.5 -183.5 q0 -147 -118 -235t-295 -88q-146 0 -258 53z" />
<glyph unicode="t" horiz-adv-x="772" d="M25 766v213h145v250h270v-250h275v-213h-275v-397q0 -88 36 -128t108 -40q69 0 127 22l10 -205q-87 -38 -211 -38q-340 0 -340 333v453h-145z" />
<glyph unicode="u" horiz-adv-x="1112" d="M106 328v659h271v-551q0 -98 44 -156.5t128 -58.5t131 70t47 188v508h270v-987h-227l-22 186q-31 -102 -108 -154t-181 -52q-163 0 -258 97t-95 251z" />
<glyph unicode="v" horiz-adv-x="1028" d="M6 987h318l200 -754l207 754h307l-366 -987h-307z" />
<glyph unicode="w" horiz-adv-x="1458" d="M6 987h295l98 -500q28 -141 45 -297q18 160 48 297l108 492h293l104 -492q34 -175 50 -297q15 153 43 297l98 500h280l-278 -987h-303l-94 406q-37 161 -52 409q-15 -254 -51 -409l-96 -406h-307z" />
<glyph unicode="x" horiz-adv-x="929" d="M-12 0l317 485l-311 502h313l164 -319l176 319h301l-332 -493l328 -494h-315l-172 305l-168 -305h-301z" />
<glyph unicode="y" horiz-adv-x="1028" d="M6 987h318l200 -754l207 754h307l-344 -928q-85 -225 -225.5 -345.5t-335.5 -153.5l-74 225q109 26 188.5 80t117.5 129z" />
<glyph unicode="z" horiz-adv-x="874" d="M63 0v199l422 567h-401v213h727v-205l-428 -561h426v-213h-746z" />
<glyph unicode="{" horiz-adv-x="825" d="M186 578v180q90 0 123 37.5t23 136.5l-27 268q-8 81 7 141.5t46.5 99t83.5 62t111 32.5t135 9v-172q-99 0 -149 -46t-39 -155l30 -305q9 -83 -26.5 -131.5t-106.5 -60.5q148 -27 133 -205l-28 -305q-10 -109 39 -155t147 -46v-172q-76 0 -135 9t-111 32.5t-83.5 62 t-46.5 99t-7 141.5l27 268q10 99 -23 137t-123 38z" />
<glyph unicode="|" horiz-adv-x="602" d="M205 -481v2048h192v-2048h-192z" />
<glyph unicode="}" horiz-adv-x="825" d="M137 -37q99 0 149.5 46t39.5 155l-31 305q-9 83 26.5 132t106.5 61q-148 27 -133 204l29 305q10 109 -39.5 155t-147.5 46v172q76 0 135 -9t111 -32.5t83.5 -62t46.5 -99t7 -141.5l-26 -268q-10 -99 22.5 -136.5t122.5 -37.5v-180q-90 0 -122.5 -38t-22.5 -137l26 -268 q8 -81 -7 -141.5t-46.5 -99t-83.5 -62t-111 -32.5t-135 -9v172z" />
<glyph unicode="~" horiz-adv-x="1159" d="M78 342q0 197 68 283t196 86q58 0 115 -20.5t149 -78.5q136 -86 205 -86q50 0 73 45t23 144h174q0 -198 -66 -283.5t-198 -85.5q-103 0 -264 98q-88 53 -129.5 69.5t-75.5 16.5q-50 0 -73 -44.5t-23 -143.5h-174z" />
<glyph unicode="&#xa1;" horiz-adv-x="516" d="M102 844q0 64 45.5 109.5t110.5 45.5t110.5 -45.5t45.5 -109.5t-46 -110t-110 -46t-110 46t-46 110zM131 -430l25 999h204l25 -999h-254z" />
<glyph unicode="&#xa3;" d="M92 584v172h180q-18 106 -18 178q0 110 39.5 196.5t107 139t153.5 79.5t183 27q166 0 260 -53l-10 -229q-100 53 -242 53q-81 0 -140.5 -57.5t-59.5 -149.5q0 -93 16 -184h365v-172h-336q6 -50 6 -101q0 -185 -162 -252h563v-229h-895v213q78 19 140.5 92.5t62.5 171.5 q0 45 -8 105h-205z" />
<glyph unicode="&#xa5;" d="M29 1341h286l222 -563l217 563h286l-301 -575h164v-160h-239v-112h239v-172h-237v-322h-271v322h-239v172h239v112h-239v160h161z" />
<glyph unicode="&#xa8;" horiz-adv-x="1024" d="M188 1212q0 54 37.5 91.5t91.5 37.5t91.5 -37.5t37.5 -91.5t-37.5 -91.5t-91.5 -37.5t-91.5 37.5t-37.5 91.5zM578 1212q0 54 37.5 91.5t91.5 37.5t91.5 -37.5t37.5 -91.5t-37.5 -91.5t-91.5 -37.5t-91.5 37.5t-37.5 91.5z" />
<glyph unicode="&#xab;" horiz-adv-x="1118" d="M135 516l244 346h235l-243 -346l243 -346h-235zM545 516l243 346h236l-244 -346l244 -346h-236z" />
<glyph unicode="&#xad;" horiz-adv-x="712" d="M115 467v172h483v-172h-483z" />
<glyph unicode="&#xb4;" horiz-adv-x="1024" d="M299 1092l141 272l287 16l-229 -274z" />
<glyph unicode="&#xb8;" horiz-adv-x="1024" d="M297 -377l55 119q42 -18 103 -18q42 0 65 15t23 38q0 32 -35 46.5t-119 14.5l76 168l147 -4l-41 -72q71 -7 107.5 -48.5t36.5 -104.5q0 -92 -72.5 -140.5t-189.5 -48.5q-93 0 -156 35z" />
<glyph unicode="&#xbb;" horiz-adv-x="1118" d="M94 170l244 346l-244 346h236l243 -346l-243 -346h-236zM504 170l244 346l-244 346h235l244 -346l-244 -346h-235z" />
<glyph unicode="&#xbf;" horiz-adv-x="856" d="M57 -109q0 102 45 187t162 225q61 73 90 134t33 132h272q-3 -90 -32 -160.5t-105 -164.5q-104 -130 -137 -193.5t-33 -130.5q0 -61 52 -101t139 -40q150 0 268 100l8 -231q-63 -45 -154 -72t-190 -27q-183 0 -300.5 95.5t-117.5 246.5zM367 844q0 64 45.5 109.5 t109.5 45.5q65 0 110.5 -45.5t45.5 -109.5t-46 -110t-110 -46t-109.5 45.5t-45.5 110.5z" />
<glyph unicode="&#xc0;" horiz-adv-x="1296" d="M6 0l479 1409h324l479 -1409h-299l-127 422h-438l-127 -422h-291zM324 1794l286 -16l142 -273l-199 15zM494 651h299l-150 498z" />
<glyph unicode="&#xc1;" horiz-adv-x="1296" d="M6 0l479 1409h324l479 -1409h-299l-127 422h-438l-127 -422h-291zM494 651h299l-150 498zM541 1505l141 273l287 16l-230 -274z" />
<glyph unicode="&#xc2;" horiz-adv-x="1296" d="M6 0l479 1409h324l479 -1409h-299l-127 422h-438l-127 -422h-291zM377 1507l162 277h219l162 -277h-203l-70 160l-69 -160h-201zM494 651h299l-150 498z" />
<glyph unicode="&#xc3;" horiz-adv-x="1296" d="M6 0l479 1409h324l479 -1409h-299l-127 422h-438l-127 -422h-291zM373 1536v47q0 90 42.5 133t114.5 43q37 0 127 -33q56 -22 86 -22q21 0 36.5 18t15.5 39h127v-47q0 -89 -43 -132.5t-115 -43.5q-39 0 -129 33q-59 22 -88 22q-21 0 -34 -17.5t-13 -39.5h-127zM494 651 h299l-150 498z" />
<glyph unicode="&#xc4;" horiz-adv-x="1296" d="M6 0l479 1409h324l479 -1409h-299l-127 422h-438l-127 -422h-291zM324 1626q0 54 37.5 91.5t91.5 37.5t91.5 -37.5t37.5 -91.5t-37.5 -91.5t-91.5 -37.5t-91.5 37.5t-37.5 91.5zM494 651h299l-150 498zM713 1626q0 54 37.5 91.5t91.5 37.5t91.5 -37.5t37.5 -91.5 t-37.5 -91.5t-91.5 -37.5t-91.5 37.5t-37.5 91.5z" />
<glyph unicode="&#xc5;" horiz-adv-x="1296" d="M6 0l479 1409h324l479 -1409h-299l-127 422h-438l-127 -422h-291zM453 1647q0 81 57 126.5t137 45.5t137.5 -45.5t57.5 -126.5t-57.5 -126.5t-137.5 -45.5t-137 45.5t-57 126.5zM494 651h299l-150 498zM582 1647q0 -33 19 -53.5t46 -20.5t46.5 20.5t19.5 53.5 q0 32 -19.5 52.5t-46.5 20.5t-46 -20.5t-19 -52.5z" />
<glyph unicode="&#xc6;" horiz-adv-x="1806" d="M35 0l676 1401h979v-230h-600l43 -346h503v-229h-475l47 -367h539v-229h-762l-49 422h-426l-186 -422h-289zM610 651h299l-63 535z" />
<glyph unicode="&#xc7;" horiz-adv-x="1257" d="M78 698q0 141 39.5 262t109.5 208t164.5 148.5t205.5 91.5t232 30q249 0 390 -82l-27 -234q-159 86 -363 86q-94 0 -176.5 -32t-146 -91.5t-100.5 -153.5t-37 -210q0 -243 123.5 -381.5t330.5 -138.5q176 0 355 90l20 -232q-154 -81 -377 -88l-24 -41q71 -7 107 -48.5 t36 -104.5q0 -92 -72.5 -140.5t-189.5 -48.5q-93 0 -156 35l56 119q42 -18 102 -18q42 0 65 15t23 38q0 32 -35 46.5t-119 14.5l64 139q-276 30 -438 216t-162 505z" />
<glyph unicode="&#xc8;" horiz-adv-x="1034" d="M115 0v1401h852v-230h-582v-346h516v-229h-516v-367h590v-229h-860zM229 1794l287 -16l141 -273l-198 15z" />
<glyph unicode="&#xc9;" horiz-adv-x="1034" d="M115 0v1401h852v-230h-582v-346h516v-229h-516v-367h590v-229h-860zM446 1505l142 273l286 16l-229 -274z" />
<glyph unicode="&#xca;" horiz-adv-x="1034" d="M115 0v1401h852v-230h-582v-346h516v-229h-516v-367h590v-229h-860zM283 1507l161 277h220l161 -277h-202l-70 160l-70 -160h-200z" />
<glyph unicode="&#xcb;" horiz-adv-x="1034" d="M115 0v1401h852v-230h-582v-346h516v-229h-516v-367h590v-229h-860zM229 1626q0 54 37.5 91.5t91.5 37.5t91.5 -37.5t37.5 -91.5t-37.5 -91.5t-91.5 -37.5t-91.5 37.5t-37.5 91.5zM618 1626q0 54 38 91.5t92 37.5t91.5 -37.5t37.5 -91.5t-37.5 -91.5t-91.5 -37.5 t-92 37.5t-38 91.5z" />
<glyph unicode="&#xcc;" horiz-adv-x="499" d="M-74 1794l287 -16l141 -273l-198 15zM115 0v1409h270v-1409h-270z" />
<glyph unicode="&#xcd;" horiz-adv-x="499" d="M115 0v1409h270v-1409h-270zM143 1505l142 273l286 16l-229 -274z" />
<glyph unicode="&#xce;" horiz-adv-x="499" d="M-20 1507l161 277h219l162 -277h-203l-69 160l-70 -160h-200zM115 0v1409h270v-1409h-270z" />
<glyph unicode="&#xcf;" horiz-adv-x="499" d="M-74 1626q0 54 37.5 91.5t91.5 37.5t91.5 -37.5t37.5 -91.5t-37.5 -91.5t-91.5 -37.5t-91.5 37.5t-37.5 91.5zM115 0v1409h270v-1409h-270zM315 1626q0 54 37.5 91.5t91.5 37.5t91.5 -37.5t37.5 -91.5t-37.5 -91.5t-91.5 -37.5t-91.5 37.5t-37.5 91.5z" />
<glyph unicode="&#xd1;" horiz-adv-x="1368" d="M106 0v1409h402l358 -774q82 -176 144 -369q-11 226 -11 369v774h263v-1409h-402l-358 774q-82 176 -144 369q11 -226 11 -369v-774h-263zM410 1536v47q0 90 42.5 133t114.5 43q37 0 127 -33q56 -22 86 -22q21 0 36 18t15 39h127v-47q0 -90 -42.5 -133t-114.5 -43 q-39 0 -129 33q-59 22 -88 22q-21 0 -34 -17.5t-13 -39.5h-127z" />
<glyph unicode="&#xd2;" horiz-adv-x="1527" d="M78 705q0 164 52.5 301.5t144.5 232t219.5 147t275.5 52.5t275.5 -52.5t219.5 -147t144.5 -232t52.5 -301.5t-52.5 -301.5t-144.5 -232.5t-219.5 -147.5t-275.5 -52.5t-275.5 52.5t-219.5 147.5t-144.5 232.5t-52.5 301.5zM369 705q0 -232 105.5 -368t295.5 -136 t295.5 136t105.5 368t-105.5 367.5t-295.5 135.5t-295.5 -135.5t-105.5 -367.5zM446 1794l287 -16l141 -273l-198 15z" />
<glyph unicode="&#xd3;" horiz-adv-x="1527" d="M78 705q0 164 52.5 301.5t144.5 232t219.5 147t275.5 52.5t275.5 -52.5t219.5 -147t144.5 -232t52.5 -301.5t-52.5 -301.5t-144.5 -232.5t-219.5 -147.5t-275.5 -52.5t-275.5 52.5t-219.5 147.5t-144.5 232.5t-52.5 301.5zM369 705q0 -232 105.5 -368t295.5 -136 t295.5 136t105.5 368t-105.5 367.5t-295.5 135.5t-295.5 -135.5t-105.5 -367.5zM664 1505l141 273l287 16l-230 -274z" />
<glyph unicode="&#xd4;" horiz-adv-x="1527" d="M78 705q0 164 52.5 301.5t144.5 232t219.5 147t275.5 52.5t275.5 -52.5t219.5 -147t144.5 -232t52.5 -301.5t-52.5 -301.5t-144.5 -232.5t-219.5 -147.5t-275.5 -52.5t-275.5 52.5t-219.5 147.5t-144.5 232.5t-52.5 301.5zM369 705q0 -232 105.5 -368t295.5 -136 t295.5 136t105.5 368t-105.5 367.5t-295.5 135.5t-295.5 -135.5t-105.5 -367.5zM500 1507l162 277h219l161 -277h-202l-70 160l-70 -160h-200z" />
<glyph unicode="&#xd5;" horiz-adv-x="1527" d="M78 705q0 164 52.5 301.5t144.5 232t219.5 147t275.5 52.5t275.5 -52.5t219.5 -147t144.5 -232t52.5 -301.5t-52.5 -301.5t-144.5 -232.5t-219.5 -147.5t-275.5 -52.5t-275.5 52.5t-219.5 147.5t-144.5 232.5t-52.5 301.5zM369 705q0 -232 105.5 -368t295.5 -136 t295.5 136t105.5 368t-105.5 367.5t-295.5 135.5t-295.5 -135.5t-105.5 -367.5zM496 1536v47q0 90 42.5 133t114.5 43q37 0 127 -33q56 -22 86 -22q21 0 36.5 18t15.5 39h126v-47q0 -90 -42.5 -133t-114.5 -43q-39 0 -129 33q-59 22 -88 22q-21 0 -34 -17.5t-13 -39.5h-127z " />
<glyph unicode="&#xd6;" horiz-adv-x="1527" d="M78 705q0 164 52.5 301.5t144.5 232t219.5 147t275.5 52.5t275.5 -52.5t219.5 -147t144.5 -232t52.5 -301.5t-52.5 -301.5t-144.5 -232.5t-219.5 -147.5t-275.5 -52.5t-275.5 52.5t-219.5 147.5t-144.5 232.5t-52.5 301.5zM369 705q0 -232 105.5 -368t295.5 -136 t295.5 136t105.5 368t-105.5 367.5t-295.5 135.5t-295.5 -135.5t-105.5 -367.5zM446 1626q0 54 37.5 91.5t91.5 37.5t92 -37.5t38 -91.5t-38 -91.5t-92 -37.5t-91.5 37.5t-37.5 91.5zM836 1626q0 54 37.5 91.5t91.5 37.5t91.5 -37.5t37.5 -91.5t-37.5 -91.5t-91.5 -37.5 t-91.5 37.5t-37.5 91.5z" />
<glyph unicode="&#xd8;" horiz-adv-x="1529" d="M78 121l125 141q-123 188 -123 443q0 164 52.5 301.5t144.5 232t219.5 147t275.5 52.5q217 0 379 -107l98 111l168 -154l-98 -110q145 -194 145 -473q0 -164 -52.5 -301.5t-144.5 -232.5t-219.5 -147.5t-275.5 -52.5q-235 0 -410 127l-116 -131zM371 705q0 -125 30 -220 l586 662q-92 61 -215 61q-190 0 -295.5 -135.5t-105.5 -367.5zM526 285q96 -84 246 -84q190 0 296 136t106 368q0 151 -46 258z" />
<glyph unicode="&#xd9;" horiz-adv-x="1329" d="M106 485v924h271v-854q0 -171 76.5 -258.5t218.5 -87.5q137 0 213 80t76 237v883h270v-862q0 -145 -43 -257t-121 -182t-181 -105.5t-227 -35.5q-162 0 -286 59t-195.5 177.5t-71.5 281.5zM344 1790l287 -16l141 -273l-199 15z" />
<glyph unicode="&#xda;" horiz-adv-x="1329" d="M106 485v924h271v-854q0 -171 76.5 -258.5t218.5 -87.5q137 0 213 80t76 237v883h270v-862q0 -145 -43 -257t-121 -182t-181 -105.5t-227 -35.5q-162 0 -286 59t-195.5 177.5t-71.5 281.5zM561 1501l141 273l287 16l-229 -274z" />
<glyph unicode="&#xdb;" horiz-adv-x="1329" d="M106 485v924h271v-854q0 -171 76.5 -258.5t218.5 -87.5q137 0 213 80t76 237v883h270v-862q0 -145 -43 -257t-121 -182t-181 -105.5t-227 -35.5q-162 0 -286 59t-195.5 177.5t-71.5 281.5zM397 1503l162 277h219l162 -277h-203l-69 160l-70 -160h-201z" />
<glyph unicode="&#xdc;" horiz-adv-x="1329" d="M106 485v924h271v-854q0 -171 76.5 -258.5t218.5 -87.5q137 0 213 80t76 237v883h270v-862q0 -145 -43 -257t-121 -182t-181 -105.5t-227 -35.5q-162 0 -286 59t-195.5 177.5t-71.5 281.5zM344 1622q0 54 37.5 91.5t91.5 37.5t91.5 -37.5t37.5 -91.5t-37.5 -91.5 t-91.5 -37.5t-91.5 37.5t-37.5 91.5zM733 1622q0 54 37.5 91.5t91.5 37.5t91.5 -37.5t37.5 -91.5t-37.5 -91.5t-91.5 -37.5t-91.5 37.5t-37.5 91.5z" />
<glyph unicode="&#xdd;" horiz-adv-x="1181" d="M-8 1409h334l274 -573l281 573h311l-465 -811v-598h-270v598zM485 1501l142 273l286 16l-229 -274z" />
<glyph unicode="&#xdf;" horiz-adv-x="1228" d="M31 766v213h121v14q0 108 28 198t75 151t110 103.5t131 61.5t139 19q219 0 350 -105t131 -280q0 -135 -79.5 -225.5t-194.5 -110.5q154 -31 235.5 -135.5t81.5 -247.5q0 -109 -39 -194.5t-107.5 -138t-156 -79t-188.5 -26.5q-92 0 -168 24l10 228q89 -27 168 -27 q75 0 132.5 50t57.5 136q0 107 -67.5 156.5t-218.5 50.5v234q110 0 178.5 73.5t68.5 182.5q0 98 -51.5 153t-148.5 55q-94 0 -150.5 -77.5t-56.5 -210.5v-1012h-270v766h-121z" />
<glyph unicode="&#xe0;" horiz-adv-x="987" d="M68 270q0 154 124.5 241t323.5 87q44 0 94 -4v22q0 75 -45 116.5t-139 41.5q-64 0 -140.5 -20t-133.5 -56l-17 230q62 37 152.5 58.5t179.5 21.5q213 0 313.5 -97.5t100.5 -273.5v-637h-228l-20 125q-42 -78 -105 -111.5t-163 -33.5q-135 0 -216 77.5t-81 212.5z M193 1380l286 -16l142 -272l-199 14zM340 289q0 -51 34 -83t89 -32q61 0 104 57t43 142v55q-50 4 -80 4q-87 0 -138.5 -38.5t-51.5 -104.5z" />
<glyph unicode="&#xe1;" horiz-adv-x="987" d="M68 270q0 154 124.5 241t323.5 87q44 0 94 -4v22q0 75 -45 116.5t-139 41.5q-64 0 -140.5 -20t-133.5 -56l-17 230q62 37 152.5 58.5t179.5 21.5q213 0 313.5 -97.5t100.5 -273.5v-637h-228l-20 125q-42 -78 -105 -111.5t-163 -33.5q-135 0 -216 77.5t-81 212.5zM340 289 q0 -51 34 -83t89 -32q61 0 104 57t43 142v55q-50 4 -80 4q-87 0 -138.5 -38.5t-51.5 -104.5zM410 1092l141 272l287 16l-230 -274z" />
<glyph unicode="&#xe2;" horiz-adv-x="987" d="M68 270q0 154 124.5 241t323.5 87q44 0 94 -4v22q0 75 -45 116.5t-139 41.5q-64 0 -140.5 -20t-133.5 -56l-17 230q62 37 152.5 58.5t179.5 21.5q213 0 313.5 -97.5t100.5 -273.5v-637h-228l-20 125q-42 -78 -105 -111.5t-163 -33.5q-135 0 -216 77.5t-81 212.5z M246 1094l162 276h219l161 -276h-202l-70 159l-70 -159h-200zM340 289q0 -51 34 -83t89 -32q61 0 104 57t43 142v55q-50 4 -80 4q-87 0 -138.5 -38.5t-51.5 -104.5z" />
<glyph unicode="&#xe3;" horiz-adv-x="987" d="M68 270q0 154 124.5 241t323.5 87q44 0 94 -4v22q0 75 -45 116.5t-139 41.5q-64 0 -140.5 -20t-133.5 -56l-17 230q62 37 152.5 58.5t179.5 21.5q213 0 313.5 -97.5t100.5 -273.5v-637h-228l-20 125q-42 -78 -105 -111.5t-163 -33.5q-135 0 -216 77.5t-81 212.5z M242 1122v47q0 90 42.5 133.5t114.5 43.5q37 0 127 -33q59 -23 86 -23q21 0 36.5 18.5t15.5 39.5h127v-48q0 -89 -43 -132.5t-115 -43.5q-39 0 -129 33q-62 23 -88 23q-21 0 -34 -18t-13 -40h-127zM340 289q0 -51 34 -83t89 -32q61 0 104 57t43 142v55q-50 4 -80 4 q-87 0 -138.5 -38.5t-51.5 -104.5z" />
<glyph unicode="&#xe4;" horiz-adv-x="987" d="M68 270q0 154 124.5 241t323.5 87q44 0 94 -4v22q0 75 -45 116.5t-139 41.5q-64 0 -140.5 -20t-133.5 -56l-17 230q62 37 152.5 58.5t179.5 21.5q213 0 313.5 -97.5t100.5 -273.5v-637h-228l-20 125q-42 -78 -105 -111.5t-163 -33.5q-135 0 -216 77.5t-81 212.5z M193 1212q0 54 37.5 91.5t91.5 37.5t91.5 -37.5t37.5 -91.5t-37.5 -91.5t-91.5 -37.5t-91.5 37.5t-37.5 91.5zM340 289q0 -51 34 -83t89 -32q61 0 104 57t43 142v55q-50 4 -80 4q-87 0 -138.5 -38.5t-51.5 -104.5zM582 1212q0 54 37.5 91.5t91.5 37.5t91.5 -37.5t37.5 -91.5 t-37.5 -91.5t-91.5 -37.5t-91.5 37.5t-37.5 91.5z" />
<glyph unicode="&#xe5;" horiz-adv-x="987" d="M68 270q0 154 124.5 241t323.5 87q44 0 94 -4v22q0 75 -45 116.5t-139 41.5q-64 0 -140.5 -20t-133.5 -56l-17 230q62 37 152.5 58.5t179.5 21.5q213 0 313.5 -97.5t100.5 -273.5v-637h-228l-20 125q-42 -78 -105 -111.5t-163 -33.5q-135 0 -216 77.5t-81 212.5z M322 1233q0 81 57 126.5t137 45.5t137.5 -45.5t57.5 -126.5t-57.5 -126.5t-137.5 -45.5t-137 45.5t-57 126.5zM340 289q0 -51 34 -83t89 -32q61 0 104 57t43 142v55q-50 4 -80 4q-87 0 -138.5 -38.5t-51.5 -104.5zM451 1233q0 -33 19 -53.5t46 -20.5t46.5 20.5t19.5 53.5 q0 32 -19.5 53t-46.5 21t-46 -21t-19 -53z" />
<glyph unicode="&#xe6;" horiz-adv-x="1527" d="M68 270q0 103 60.5 175.5t161.5 107.5t232 35q44 0 94 -4v10q0 78 -44.5 129t-135.5 51q-64 0 -140.5 -20t-133.5 -56l-17 230q132 80 318 80q107 0 185 -43.5t122 -120.5q114 164 309 164q103 0 181.5 -39.5t125.5 -109t70 -157.5t23 -192q0 -52 -11 -113h-591 q13 -95 86.5 -147.5t173.5 -52.5q149 0 262 61l18 -209q-125 -69 -317 -69q-102 0 -199 52.5t-158 151.5q-117 -204 -364 -204q-137 0 -224 78t-87 212zM340 289q0 -51 34 -83t89 -32q61 0 107 57.5t46 141.5v45q-50 4 -79 4q-89 0 -143 -34.5t-54 -98.5zM879 588h354 q0 88 -41.5 151.5t-124.5 63.5q-75 0 -127 -58t-61 -157z" />
<glyph unicode="&#xe7;" horiz-adv-x="892" d="M61 483q0 154 71 275t190 185.5t262 64.5q171 0 266 -50l-19 -221q-95 45 -217 45q-121 0 -197.5 -78.5t-76.5 -207.5q0 -136 75.5 -217.5t194.5 -81.5q113 0 211 49l19 -213q-91 -45 -232 -51l-20 -37q71 -7 107 -49t36 -105q0 -92 -72 -140t-190 -48q-93 0 -156 35 l56 118q42 -18 102 -18q42 0 65 15t23 38q0 32 -34.5 47t-118.5 15l59 133q-185 25 -294.5 155.5t-109.5 341.5z" />
<glyph unicode="&#xe8;" horiz-adv-x="978" d="M61 463q0 248 130.5 396.5t332.5 148.5q83 0 151 -26t114.5 -71.5t78.5 -108.5t47 -136.5t15 -155.5q0 -60 -10 -115h-601q10 -97 76.5 -148.5t177.5 -51.5q155 0 271 61l18 -205q-129 -71 -342 -71q-210 0 -334.5 123.5t-124.5 359.5zM195 1380l286 -16l142 -272 l-199 14zM322 590h362q0 93 -41.5 151t-130.5 58q-75 0 -126.5 -55t-63.5 -154z" />
<glyph unicode="&#xe9;" horiz-adv-x="978" d="M61 463q0 248 130.5 396.5t332.5 148.5q83 0 151 -26t114.5 -71.5t78.5 -108.5t47 -136.5t15 -155.5q0 -60 -10 -115h-601q10 -97 76.5 -148.5t177.5 -51.5q155 0 271 61l18 -205q-129 -71 -342 -71q-210 0 -334.5 123.5t-124.5 359.5zM322 590h362q0 93 -41.5 151 t-130.5 58q-75 0 -126.5 -55t-63.5 -154zM412 1092l141 272l287 16l-230 -274z" />
<glyph unicode="&#xea;" horiz-adv-x="978" d="M61 463q0 248 130.5 396.5t332.5 148.5q83 0 151 -26t114.5 -71.5t78.5 -108.5t47 -136.5t15 -155.5q0 -60 -10 -115h-601q10 -97 76.5 -148.5t177.5 -51.5q155 0 271 61l18 -205q-129 -71 -342 -71q-210 0 -334.5 123.5t-124.5 359.5zM248 1094l162 276h219l162 -276 h-203l-70 159l-69 -159h-201zM322 590h362q0 93 -41.5 151t-130.5 58q-75 0 -126.5 -55t-63.5 -154z" />
<glyph unicode="&#xeb;" horiz-adv-x="978" d="M61 463q0 248 130.5 396.5t332.5 148.5q83 0 151 -26t114.5 -71.5t78.5 -108.5t47 -136.5t15 -155.5q0 -60 -10 -115h-601q10 -97 76.5 -148.5t177.5 -51.5q155 0 271 61l18 -205q-129 -71 -342 -71q-210 0 -334.5 123.5t-124.5 359.5zM195 1212q0 54 37.5 91.5 t91.5 37.5t91.5 -37.5t37.5 -91.5t-37.5 -91.5t-91.5 -37.5t-91.5 37.5t-37.5 91.5zM322 590h362q0 93 -41.5 151t-130.5 58q-75 0 -126.5 -55t-63.5 -154zM584 1212q0 54 37.5 91.5t91.5 37.5t91.5 -37.5t37.5 -91.5t-37.5 -91.5t-91.5 -37.5t-91.5 37.5t-37.5 91.5z" />
<glyph unicode="&#xec;" horiz-adv-x="516" d="M-66 1380l287 -16l141 -272l-198 14zM123 0v987h270v-987h-270z" />
<glyph unicode="&#xed;" horiz-adv-x="516" d="M123 0v987h270v-987h-270zM152 1092l141 272l287 16l-230 -274z" />
<glyph unicode="&#xee;" horiz-adv-x="516" d="M-12 1094l162 276h219l161 -276h-202l-70 159l-70 -159h-200zM123 0v987h270v-987h-270z" />
<glyph unicode="&#xef;" horiz-adv-x="516" d="M-66 1212q0 54 37.5 91.5t91.5 37.5t92 -37.5t38 -91.5t-38 -91.5t-92 -37.5t-91.5 37.5t-37.5 91.5zM123 0v987h270v-987h-270zM324 1212q0 54 37.5 91.5t91.5 37.5t91.5 -37.5t37.5 -91.5t-37.5 -91.5t-91.5 -37.5t-91.5 37.5t-37.5 91.5z" />
<glyph unicode="&#xf1;" horiz-adv-x="1112" d="M115 0v987h227l23 -186q31 102 107.5 154.5t180.5 52.5q163 0 258 -97.5t95 -251.5v-659h-271v551q0 98 -44 156.5t-128 58.5t-131 -70t-47 -188v-508h-270zM309 1122v47q0 90 43 133.5t115 43.5q37 0 127 -33q59 -23 86 -23q21 0 36 18.5t15 39.5h127v-48 q0 -89 -43 -132.5t-115 -43.5q-39 0 -129 33q-62 23 -88 23q-21 0 -34 -18t-13 -40h-127z" />
<glyph unicode="&#xf2;" horiz-adv-x="1110" d="M61 494q0 161 67 279.5t177.5 176.5t249.5 58t249.5 -58t177.5 -176.5t67 -279.5q0 -160 -67 -278.5t-177.5 -177t-249.5 -58.5t-249.5 58.5t-177.5 177t-67 278.5zM231 1380l287 -16l141 -272l-198 14zM346 494q0 -148 56.5 -227t152.5 -79t152.5 79t56.5 227 q0 149 -56.5 227t-152.5 78t-152.5 -78t-56.5 -227z" />
<glyph unicode="&#xf3;" horiz-adv-x="1110" d="M61 494q0 161 67 279.5t177.5 176.5t249.5 58t249.5 -58t177.5 -176.5t67 -279.5q0 -160 -67 -278.5t-177.5 -177t-249.5 -58.5t-249.5 58.5t-177.5 177t-67 278.5zM346 494q0 -148 56.5 -227t152.5 -79t152.5 79t56.5 227q0 149 -56.5 227t-152.5 78t-152.5 -78 t-56.5 -227zM449 1092l141 272l287 16l-230 -274z" />
<glyph unicode="&#xf4;" horiz-adv-x="1110" d="M61 494q0 161 67 279.5t177.5 176.5t249.5 58t249.5 -58t177.5 -176.5t67 -279.5q0 -160 -67 -278.5t-177.5 -177t-249.5 -58.5t-249.5 58.5t-177.5 177t-67 278.5zM285 1094l161 276h220l161 -276h-202l-70 159l-70 -159h-200zM346 494q0 -148 56.5 -227t152.5 -79 t152.5 79t56.5 227q0 149 -56.5 227t-152.5 78t-152.5 -78t-56.5 -227z" />
<glyph unicode="&#xf5;" horiz-adv-x="1110" d="M61 494q0 161 67 279.5t177.5 176.5t249.5 58t249.5 -58t177.5 -176.5t67 -279.5q0 -160 -67 -278.5t-177.5 -177t-249.5 -58.5t-249.5 58.5t-177.5 177t-67 278.5zM281 1122v47q0 90 42.5 133.5t114.5 43.5q37 0 127 -33q59 -23 86 -23q21 0 36 18.5t15 39.5h127v-48 q0 -90 -42.5 -133t-114.5 -43q-39 0 -129 33q-62 23 -88 23q-21 0 -34 -18t-13 -40h-127zM346 494q0 -148 56.5 -227t152.5 -79t152.5 79t56.5 227q0 149 -56.5 227t-152.5 78t-152.5 -78t-56.5 -227z" />
<glyph unicode="&#xf6;" horiz-adv-x="1110" d="M61 494q0 161 67 279.5t177.5 176.5t249.5 58t249.5 -58t177.5 -176.5t67 -279.5q0 -160 -67 -278.5t-177.5 -177t-249.5 -58.5t-249.5 58.5t-177.5 177t-67 278.5zM231 1212q0 54 37.5 91.5t91.5 37.5t91.5 -37.5t37.5 -91.5t-37.5 -91.5t-91.5 -37.5t-91.5 37.5 t-37.5 91.5zM346 494q0 -148 56.5 -227t152.5 -79t152.5 79t56.5 227q0 149 -56.5 227t-152.5 78t-152.5 -78t-56.5 -227zM621 1212q0 54 37.5 91.5t91.5 37.5t91.5 -37.5t37.5 -91.5t-37.5 -91.5t-91.5 -37.5t-91.5 37.5t-37.5 91.5z" />
<glyph unicode="&#xf8;" horiz-adv-x="1101" d="M31 41l121 135q-91 131 -91 318q0 161 67 279.5t177.5 176.5t249.5 58q151 0 270 -72l113 129l133 -123l-115 -129q93 -134 93 -319q0 -160 -67 -278.5t-177.5 -177t-249.5 -58.5q-156 0 -272 73l-119 -135zM346 494q0 -48 6 -91l318 359q-49 37 -115 37 q-96 0 -152.5 -78t-56.5 -227zM438 227q51 -39 117 -39q96 0 152.5 79t56.5 227q0 50 -6 94z" />
<glyph unicode="&#xf9;" horiz-adv-x="1112" d="M106 328v659h271v-551q0 -98 44 -156.5t128 -58.5t131 70t47 188v508h270v-987h-227l-22 186q-31 -102 -108 -154t-181 -52q-163 0 -258 97t-95 251zM227 1380l287 -16l141 -272l-198 14z" />
<glyph unicode="&#xfa;" horiz-adv-x="1112" d="M106 328v659h271v-551q0 -98 44 -156.5t128 -58.5t131 70t47 188v508h270v-987h-227l-22 186q-31 -102 -108 -154t-181 -52q-163 0 -258 97t-95 251zM444 1092l142 272l286 16l-229 -274z" />
<glyph unicode="&#xfb;" horiz-adv-x="1112" d="M106 328v659h271v-551q0 -98 44 -156.5t128 -58.5t131 70t47 188v508h270v-987h-227l-22 186q-31 -102 -108 -154t-181 -52q-163 0 -258 97t-95 251zM281 1094l161 276h220l161 -276h-202l-70 159l-70 -159h-200z" />
<glyph unicode="&#xfc;" horiz-adv-x="1112" d="M106 328v659h271v-551q0 -98 44 -156.5t128 -58.5t131 70t47 188v508h270v-987h-227l-22 186q-31 -102 -108 -154t-181 -52q-163 0 -258 97t-95 251zM227 1212q0 54 37.5 91.5t91.5 37.5t91.5 -37.5t37.5 -91.5t-37.5 -91.5t-91.5 -37.5t-91.5 37.5t-37.5 91.5zM616 1212 q0 54 37.5 91.5t91.5 37.5t91.5 -37.5t37.5 -91.5t-37.5 -91.5t-91.5 -37.5t-91.5 37.5t-37.5 91.5z" />
<glyph unicode="&#xfd;" horiz-adv-x="1028" d="M6 987h318l200 -754l207 754h307l-344 -928q-85 -225 -225.5 -345.5t-335.5 -153.5l-74 225q109 26 188.5 80t117.5 129zM416 1094l141 272l287 16l-230 -274z" />
<glyph unicode="&#xff;" horiz-adv-x="1028" d="M6 987h318l200 -754l207 754h307l-344 -928q-85 -225 -225.5 -345.5t-335.5 -153.5l-74 225q109 26 188.5 80t117.5 129zM199 1214q0 54 37.5 91.5t91.5 37.5t91.5 -37.5t37.5 -91.5t-37.5 -91.5t-91.5 -37.5t-91.5 37.5t-37.5 91.5zM588 1214q0 54 37.5 91.5t91.5 37.5 t91.5 -37.5t37.5 -91.5t-37.5 -91.5t-91.5 -37.5t-91.5 37.5t-37.5 91.5z" />
<glyph unicode="&#x152;" horiz-adv-x="2091" d="M78 705q0 331 184 532t479 201q290 0 430 -211v174h852v-230h-581v-346h516v-229h-516v-367h590v-229h-861v182q-140 -211 -430 -211q-295 0 -479 201.5t-184 532.5zM369 705q0 -235 105 -369.5t296 -134.5t296 134.5t105 369.5q0 234 -105 368.5t-296 134.5t-296 -134.5 t-105 -368.5z" />
<glyph unicode="&#x153;" horiz-adv-x="1681" d="M61 494q0 161 67 279.5t177.5 176.5t249.5 58q227 0 350 -172q114 172 322 172q103 0 182 -39.5t127 -109t72 -157.5t24 -192q0 -58 -10 -113h-598q13 -98 80 -149t180 -51q155 0 268 61l19 -209q-125 -69 -340 -69q-220 0 -330 167q-120 -167 -346 -167 q-139 0 -249.5 58.5t-177.5 177t-67 278.5zM346 494q0 -148 56.5 -227t152.5 -79t152.5 79t56.5 227q0 149 -56.5 227t-152.5 78t-152.5 -78t-56.5 -227zM1026 588h360q0 87 -44.5 151t-127.5 64q-75 0 -127 -58t-61 -157z" />
<glyph unicode="&#x178;" horiz-adv-x="1181" d="M-8 1409h334l274 -573l281 573h311l-465 -811v-598h-270v598zM268 1622q0 54 37.5 91.5t91.5 37.5t91.5 -37.5t37.5 -91.5t-37.5 -91.5t-91.5 -37.5t-91.5 37.5t-37.5 91.5zM657 1622q0 54 37.5 91.5t91.5 37.5t91.5 -37.5t37.5 -91.5t-37.5 -91.5t-91.5 -37.5 t-91.5 37.5t-37.5 91.5z" />
<glyph unicode="&#x2c6;" horiz-adv-x="1024" d="M242 1094l161 276h220l161 -276h-202l-70 159l-70 -159h-200z" />
<glyph unicode="&#x2dc;" horiz-adv-x="1024" d="M238 1122v47q0 90 42.5 133.5t114.5 43.5q37 0 127 -33q59 -23 86 -23q21 0 36 18.5t15 39.5h127v-48q0 -90 -42.5 -133t-114.5 -43q-39 0 -129 33q-62 23 -88 23q-21 0 -34 -18t-13 -40h-127z" />
<glyph unicode="&#x2000;" horiz-adv-x="909" />
<glyph unicode="&#x2001;" horiz-adv-x="1819" />
<glyph unicode="&#x2002;" horiz-adv-x="909" />
<glyph unicode="&#x2003;" horiz-adv-x="1819" />
<glyph unicode="&#x2004;" horiz-adv-x="606" />
<glyph unicode="&#x2005;" horiz-adv-x="454" />
<glyph unicode="&#x2006;" horiz-adv-x="303" />
<glyph unicode="&#x2007;" horiz-adv-x="303" />
<glyph unicode="&#x2008;" horiz-adv-x="227" />
<glyph unicode="&#x2009;" horiz-adv-x="363" />
<glyph unicode="&#x200a;" horiz-adv-x="101" />
<glyph unicode="&#x2010;" horiz-adv-x="712" d="M115 467v172h483v-172h-483z" />
<glyph unicode="&#x2011;" horiz-adv-x="712" d="M115 467v172h483v-172h-483z" />
<glyph unicode="&#x2012;" horiz-adv-x="712" d="M115 467v172h483v-172h-483z" />
<glyph unicode="&#x2013;" horiz-adv-x="1024" d="M115 467v172h794v-172h-794z" />
<glyph unicode="&#x2014;" horiz-adv-x="2048" d="M115 467v172h1818v-172h-1818z" />
<glyph unicode="&#x2018;" horiz-adv-x="507" d="M49 913l252 582l176 10l-174 -581z" />
<glyph unicode="&#x2019;" horiz-adv-x="520" d="M39 913l174 582l254 10l-252 -581z" />
<glyph unicode="&#x201c;" horiz-adv-x="876" d="M49 913l252 582l176 10l-174 -581zM418 913l252 582l176 10l-174 -581z" />
<glyph unicode="&#x201d;" horiz-adv-x="888" d="M39 913l174 582l254 10l-252 -581zM408 913l174 582l254 10l-252 -581z" />
<glyph unicode="&#x201e;" horiz-adv-x="1021" d="M16 -301l154 571h262l-231 -561zM406 -301l153 571h262l-231 -561z" />
<glyph unicode="&#x2026;" horiz-adv-x="1697" d="M152 135q0 65 45.5 110.5t109.5 45.5q65 0 110.5 -45.5t45.5 -110.5q0 -64 -45.5 -109.5t-110.5 -45.5t-110 45t-45 110zM684 135q0 65 46 110.5t110 45.5t109.5 -45.5t45.5 -110.5t-45.5 -110t-109.5 -45q-65 0 -110.5 45.5t-45.5 109.5zM1217 135q0 65 45.5 110.5 t109.5 45.5t110 -45.5t46 -110.5q0 -64 -45.5 -109.5t-110.5 -45.5q-64 0 -109.5 45t-45.5 110z" />
<glyph unicode="&#x202f;" horiz-adv-x="363" />
<glyph unicode="&#x2039;" horiz-adv-x="708" d="M135 516l244 346h235l-243 -346l243 -346h-235z" />
<glyph unicode="&#x203a;" horiz-adv-x="708" d="M94 170l244 346l-244 346h236l243 -346l-243 -346h-236z" />
<glyph unicode="&#x205f;" horiz-adv-x="454" />
<glyph unicode="&#x20ac;" d="M51 418l12 172h68q-8 71 0 139h-53l14 172h55q22 124 81.5 217.5t144.5 148.5t184.5 82t212.5 27q80 0 149.5 -14.5t106.5 -38.5l-12 -236q-84 60 -240 60q-153 0 -226.5 -60t-109.5 -186h420l-16 -172h-426q-8 -62 0 -139h411l-14 -172h-379q22 -114 101.5 -161.5 t218.5 -47.5q148 0 250 65l14 -229q-113 -65 -309 -65q-478 0 -555 438h-103z" />
<glyph unicode="&#x25fc;" horiz-adv-x="983" d="M0 0v983h983v-983h-983z" />
</font>
</defs>
</svg>
