<?xml version="1.0" standalone="no"?>
<!DOCTYPE svg PUBLIC "-//W3C//DTD SVG 1.1//EN" "http://www.w3.org/Graphics/SVG/1.1/DTD/svg11.dtd" >
<svg xmlns="http://www.w3.org/2000/svg">
<metadata></metadata>
<defs>
<font id="vegurlight" horiz-adv-x="933" >
<font-face units-per-em="2048" ascent="1567" descent="-481" />
<missing-glyph horiz-adv-x="479" />
<glyph unicode="&#xfb01;" horiz-adv-x="962" d="M76 905v58h137v75q0 105 25 189.5t66 139t96.5 91.5t113 52.5t117.5 15.5q99 0 143 -31l-6 -61q-49 28 -141 28q-61 0 -120 -23t-110 -69.5t-82.5 -127.5t-31.5 -185v-94h508v-963h-70v905h-438v-905h-70v905h-137z" />
<glyph unicode="&#xfb02;" horiz-adv-x="962" d="M76 905v58h137v88q0 102 26 185t68 136t98 88.5t114.5 50.5t119.5 15q85 0 152 -23v-1503h-70v1452q-48 10 -92 10q-49 0 -96.5 -13t-93.5 -43t-80 -73.5t-55 -110.5t-21 -149v-110h247v-58h-247v-905h-70v905h-137z" />
<glyph horiz-adv-x="2048" />
<glyph horiz-adv-x="2048" />
<glyph unicode="&#xd;" horiz-adv-x="2048" />
<glyph unicode=" "  horiz-adv-x="479" />
<glyph unicode="&#x09;" horiz-adv-x="479" />
<glyph unicode="&#xa0;" horiz-adv-x="479" />
<glyph unicode="!" horiz-adv-x="454" d="M160 55q0 28 19.5 48t47.5 20t48 -20t20 -48t-20 -47.5t-48 -19.5t-47.5 19.5t-19.5 47.5zM184 1409h86l-16 -1143h-53z" />
<glyph unicode="&#x22;" horiz-adv-x="546" d="M150 1505h75l-22 -549h-45zM313 1505h76l-22 -549h-45z" />
<glyph unicode="#" d="M82 463v57h192l68 316h-188v57h200l109 504h59l-108 -504h213l108 504h60l-109 -504h191v-57h-203l-68 -316h199v-57h-211l-109 -504h-59l109 504h-213l-109 -504h-59l108 504h-180zM334 520h213l67 316h-213z" />
<glyph unicode="$" d="M147 141l7 66q133 -86 307 -86q113 0 187.5 74.5t74.5 179.5q0 101 -56 160.5t-200 126.5q-147 68 -217 146.5t-70 186.5q0 126 85 205.5t194 91.5v158h61v-156q156 -6 250 -71l-10 -68q-118 80 -264 80q-97 0 -171.5 -65t-74.5 -156q0 -101 57 -165.5t182 -123.5 q161 -76 232.5 -150t71.5 -184q0 -138 -86.5 -225t-206.5 -103v-157h-62v155q-166 3 -291 80z" />
<glyph unicode="%" horiz-adv-x="1519" d="M141 1016q0 160 69.5 260t188.5 100t188.5 -100t69.5 -260q0 -159 -69.5 -260t-188.5 -101t-188.5 101t-69.5 260zM207 1016q0 -146 53 -224.5t139 -78.5q88 0 140.5 78t52.5 225q0 146 -53.5 224.5t-139.5 78.5t-139 -78.5t-53 -224.5zM352 -41l787 1438h69l-786 -1438 h-70zM862 340q0 160 69.5 260t188.5 100t188.5 -100t69.5 -260q0 -159 -69.5 -259.5t-188.5 -100.5t-188.5 100.5t-69.5 259.5zM928 340q0 -146 53 -224.5t139 -78.5q88 0 140.5 78t52.5 225q0 146 -53.5 224.5t-139.5 78.5t-139 -78.5t-53 -224.5z" />
<glyph unicode="&#x26;" horiz-adv-x="1189" d="M86 313q0 247 313 443q-89 110 -125 187t-36 161q0 139 94.5 232.5t222.5 93.5q123 0 198.5 -82t75.5 -189q0 -114 -79.5 -211.5t-255.5 -206.5l401 -481q129 178 141 428h62q-5 -131 -47 -255t-117 -220l180 -215h-86l-137 164q-174 -182 -426 -182q-157 0 -268 94.5 t-111 238.5zM156 332q0 -129 92 -209t223 -80q228 0 381 166l-414 500q-144 -95 -213 -186t-69 -191zM307 1114q0 -84 30 -149.5t118 -173.5q165 97 235 182.5t70 173.5q0 105 -57 162t-154 57q-94 0 -168 -73t-74 -179z" />
<glyph unicode="'" horiz-adv-x="382" d="M150 1505h75l-22 -549h-45z" />
<glyph unicode="(" horiz-adv-x="727" d="M199 668q0 271 81.5 508t215.5 378l34 -26q-126 -177 -194 -379.5t-68 -480.5t68 -481t194 -380l-34 -26q-134 141 -215.5 378.5t-81.5 508.5z" />
<glyph unicode=")" horiz-adv-x="727" d="M197 -193q126 177 194 380t68 481t-68 480.5t-194 379.5l34 26q134 -141 215.5 -378t81.5 -508t-81.5 -508.5t-215.5 -378.5z" />
<glyph unicode="*" horiz-adv-x="712" d="M16 1071l21 64l299 -109l-12 315h65l-12 -315l299 109l20 -64l-307 -86l199 -250l-56 -39l-176 262l-176 -262l-55 39l199 250z" />
<glyph unicode="+" horiz-adv-x="1150" d="M121 524v58h424v462h61v-462h424v-58h-424v-463h-61v463h-424z" />
<glyph unicode="," horiz-adv-x="395" d="M-55 -301l194 512l84 4l-219 -506z" />
<glyph unicode="-" horiz-adv-x="712" d="M115 524v58h483v-58h-483z" />
<glyph unicode="." horiz-adv-x="395" d="M113 55q0 28 19.5 48t47.5 20t48 -20t20 -48t-20 -47.5t-48 -19.5t-47.5 19.5t-19.5 47.5z" />
<glyph unicode="/" horiz-adv-x="788" d="M10 -199l701 1733h67l-702 -1733h-66z" />
<glyph unicode="0" d="M94 678q0 347 98.5 522.5t274.5 175.5t274.5 -175.5t98.5 -522.5t-98.5 -522.5t-274.5 -175.5t-274.5 175.5t-98.5 522.5zM168 678q0 -310 79 -471.5t220 -161.5t220 161.5t79 471.5q0 309 -79 471t-220 162t-220 -162t-79 -471z" />
<glyph unicode="1" d="M209 1112l399 244h35v-1356h-70v1253l-360 -213z" />
<glyph unicode="2" d="M88 0v47l328 416q186 236 260 362.5t74 225.5q0 128 -72.5 194t-200.5 66q-74 0 -153.5 -34.5t-133.5 -94.5l-6 78q55 55 137 85.5t160 30.5q159 0 250.5 -85t91.5 -232q0 -114 -79 -252t-283 -395l-277 -346h650v-66h-746z" />
<glyph unicode="3" d="M115 63l6 74q133 -92 289 -92q139 0 236 84.5t97 210.5q0 147 -105 233t-312 86v66q169 6 290 97t121 227q0 121 -73 191.5t-218 70.5q-137 0 -260 -105l-4 74q120 96 285 96q160 0 252 -88.5t92 -222.5q0 -133 -99.5 -234.5t-238.5 -128.5q159 -19 251.5 -114.5 t92.5 -241.5q0 -156 -120 -261t-296 -105t-286 83z" />
<glyph unicode="4" d="M84 391v49l520 916h86v-899h180v-66h-180v-389h-69v389h-537zM172 457h449v356q0 307 8 471z" />
<glyph unicode="5" d="M113 55l8 74q64 -47 126.5 -65.5t137.5 -18.5q132 0 237 91.5t105 223.5q0 353 -426 353h-121l37 635h559v-66h-497l-29 -504h67q229 0 356.5 -104.5t127.5 -296.5q0 -165 -123.5 -281t-300.5 -116q-85 0 -144.5 16.5t-119.5 58.5z" />
<glyph unicode="6" d="M98 483q0 186 52 348t142 276.5t212.5 185.5t261.5 83l4 -63q-109 -11 -204 -59.5t-165.5 -123t-121.5 -169.5t-77.5 -203t-27.5 -221q40 92 125.5 150t202.5 58q100 0 178 -52.5t118 -138t40 -187.5q0 -166 -108 -276.5t-265 -110.5q-114 0 -199 69t-126.5 182 t-41.5 252zM184 412q0 -93 33.5 -175.5t102 -137t157.5 -54.5q117 0 199 88t82 221q0 137 -72.5 230.5t-202.5 93.5q-123 0 -211 -85t-88 -181z" />
<glyph unicode="7" d="M119 1282v66h747v-52l-590 -1296h-75l583 1282h-665z" />
<glyph unicode="8" d="M115 305q0 123 86 227.5t209 157.5q-118 61 -187 148.5t-69 197.5q0 146 100 243t240 97q154 0 245.5 -89.5t91.5 -233.5q0 -214 -272 -359q142 -72 209.5 -163t67.5 -209q0 -152 -105 -247t-258 -95t-255.5 90.5t-102.5 234.5zM188 324q0 -124 81.5 -201.5t203.5 -77.5 q128 0 208.5 79t80.5 187q0 218 -283 351q-127 -56 -209 -143.5t-82 -194.5zM227 1059q0 -113 70.5 -197.5t185.5 -138.5q109 41 192 131.5t83 185.5q0 130 -71 200.5t-198 70.5q-102 0 -182 -74t-80 -178z" />
<glyph unicode="9" d="M100 989q0 166 108 276.5t265 110.5q114 0 199 -69.5t126.5 -182.5t41.5 -252q0 -186 -52 -347.5t-142 -276.5t-212.5 -185.5t-261.5 -82.5l-4 63q109 11 204 59.5t165.5 123t121.5 169.5t77.5 203t27.5 221q-40 -93 -126 -151t-202 -58q-100 0 -178 52.5t-118 138.5 t-40 188zM180 1001q0 -137 72.5 -230t202.5 -93q123 0 211 85t88 181q0 93 -33.5 175.5t-102 137t-157.5 54.5q-117 0 -199 -88.5t-82 -221.5z" />
<glyph unicode=":" horiz-adv-x="395" d="M113 55q0 28 19.5 48t47.5 20t48 -20t20 -48t-20 -47.5t-48 -19.5t-47.5 19.5t-19.5 47.5zM113 932q0 28 19.5 47.5t47.5 19.5t48 -19.5t20 -47.5t-20 -48t-48 -20t-47.5 20t-19.5 48z" />
<glyph unicode=";" horiz-adv-x="395" d="M-55 -301l194 512l84 4l-219 -506zM113 932q0 28 19.5 47.5t47.5 19.5t48 -19.5t20 -47.5t-20 -48t-48 -20t-47.5 20t-19.5 48z" />
<glyph unicode="&#x3c;" horiz-adv-x="1163" d="M176 487v54l821 424v-76l-741 -377l741 -379v-72z" />
<glyph unicode="=" horiz-adv-x="1224" d="M135 317v58h955v-58h-955zM135 731v57h955v-57h-955z" />
<glyph unicode="&#x3e;" horiz-adv-x="1163" d="M166 61v76l741 377l-741 379v72l821 -426v-54z" />
<glyph unicode="?" horiz-adv-x="765" d="M45 1337q118 93 293 93q63 0 122 -18t108 -53t78.5 -92t29.5 -128q0 -88 -51 -191t-189 -305q-56 -82 -88 -180.5t-35 -196.5h-65q6 223 135 416q130 195 174.5 286.5t44.5 166.5q0 112 -78.5 170.5t-197.5 58.5q-68 0 -143 -26t-130 -70zM217 55q0 28 20 48t48 20 t47.5 -20t19.5 -48t-19.5 -47.5t-47.5 -19.5t-48 19.5t-20 47.5z" />
<glyph unicode="@" horiz-adv-x="1763" d="M139 399q0 150 46 284.5t126 236t185 176t227.5 113t249.5 38.5q145 0 268.5 -57.5t204.5 -151t126.5 -211.5t45.5 -241q0 -211 -105.5 -346.5t-267.5 -135.5q-78 0 -130 52.5t-60 136.5q-38 -88 -119.5 -144.5t-179.5 -56.5q-91 0 -158.5 75.5t-67.5 207.5 q0 221 134 365.5t335 144.5q111 0 199 -35l-78 -492q-13 -90 27.5 -145t118.5 -55q48 0 97 26t92 74.5t70 129.5t27 181q0 129 -41 241.5t-117 197t-191.5 133.5t-256.5 49q-105 0 -212 -36t-202 -105t-169.5 -161t-118 -214t-43.5 -254q0 -129 36 -236t97.5 -181 t144 -125.5t174 -75t189.5 -23.5q225 0 432 115l6 -62q-214 -111 -461 -111q-137 0 -260 47t-216.5 132.5t-148.5 214.5t-55 284zM600 389q0 -104 48.5 -168.5t135.5 -64.5q46 0 89.5 18.5t84 56.5t71.5 106t46 159l51 307q-58 18 -135 18q-68 0 -136.5 -29.5t-125.5 -82.5 t-93 -137t-36 -183z" />
<glyph unicode="A" horiz-adv-x="1134" d="M45 0l479 1409h90l476 -1409h-74l-170 506h-559l-170 -506h-72zM309 571h516l-258 768z" />
<glyph unicode="B" horiz-adv-x="1007" d="M180 0v1407q124 23 209 23q243 0 369.5 -96.5t126.5 -258.5q0 -78 -32 -144t-84.5 -110t-116 -71.5t-130.5 -36.5q167 -19 269 -114.5t102 -236.5q0 -179 -141.5 -280.5t-374.5 -101.5q-103 0 -197 20zM250 57q80 -12 156 -12q174 0 291.5 83t117.5 218q0 154 -114.5 236 t-333.5 82h-117v-607zM250 729h92q85 0 166.5 21.5t149.5 61.5t109.5 104.5t41.5 142.5q0 148 -104 226.5t-312 78.5q-63 0 -143 -12v-623z" />
<glyph unicode="C" horiz-adv-x="1218" d="M125 694q0 161 53 300t143.5 233.5t211.5 148.5t255 54q112 0 204 -24.5t147 -62.5l-9 -67q-80 46 -157 67t-182 21q-118 0 -225.5 -47.5t-188.5 -131.5t-129.5 -207.5t-48.5 -266.5q0 -163 47 -292.5t128 -209.5t183 -122t217 -42q102 0 178 20.5t162 67.5l6 -67 q-159 -86 -368 -86q-127 0 -240 47.5t-199.5 136t-137 225.5t-50.5 305z" />
<glyph unicode="D" horiz-adv-x="1323" d="M180 2v1401q130 27 281 27q146 0 267.5 -36.5t207.5 -101t145.5 -152.5t88 -190t28.5 -215q0 -176 -60 -319.5t-165 -238t-247.5 -146t-307.5 -51.5q-117 0 -238 22zM250 57q94 -12 180 -12q191 0 349 83.5t251.5 236.5t93.5 344q0 303 -178 479t-491 176 q-120 0 -205 -18v-1289z" />
<glyph unicode="E" horiz-adv-x="905" d="M180 0v1401h623v-66h-553v-592h487v-65h-487v-612h561v-66h-631z" />
<glyph unicode="F" horiz-adv-x="845" d="M180 0v1401h623v-66h-553v-661h487v-66h-487v-608h-70z" />
<glyph unicode="G" horiz-adv-x="1257" d="M125 694q0 165 54 305t144.5 233.5t210.5 145.5t252 52q114 0 207 -22.5t146 -59.5l-9 -72q-141 88 -337 88q-115 0 -222 -46t-190 -128.5t-132.5 -207t-49.5 -271.5t34.5 -263t91 -190.5t135 -123.5t161 -69t174.5 -20q156 0 266 47v479h-301v66h370v-586 q-159 -71 -354 -71q-297 0 -474 191.5t-177 522.5z" />
<glyph unicode="H" horiz-adv-x="1253" d="M180 0v1409h70v-666h762v666h69v-1409h-69v678h-762v-678h-70z" />
<glyph unicode="I" horiz-adv-x="421" d="M180 0v1409h70v-1409h-70z" />
<glyph unicode="J" horiz-adv-x="487" d="M-90 -381q197 83 270.5 227.5t73.5 446.5v1116h70v-1112q0 -154 -17 -264t-60 -203t-118.5 -157.5t-191.5 -110.5z" />
<glyph unicode="K" horiz-adv-x="1042" d="M180 0v1409h70v-791l704 791h90l-620 -694l598 -715h-90l-559 670l-123 -138v-532h-70z" />
<glyph unicode="L" horiz-adv-x="882" d="M180 0v1409h70v-1343h567v-66h-637z" />
<glyph unicode="M" horiz-adv-x="1601" d="M168 0l22 1409h111l389 -1026q61 -155 109 -305q66 191 110 305l394 1026h112l23 -1409h-74l-14 979q-2 86 -2 179.5t2 193.5q-18 -51 -140 -373l-370 -963h-92l-361 963q-82 217 -139 389q3 -125 3 -246q0 -72 -1 -143l-12 -979h-70z" />
<glyph unicode="N" horiz-adv-x="1236" d="M168 0v1409h80l594 -1014q96 -165 170 -311q-6 185 -6 322v1003h67v-1409h-80l-608 1032q-89 150 -156 289q7 -143 7 -301v-1020h-68z" />
<glyph unicode="O" horiz-adv-x="1458" d="M125 705q0 214 78.5 380t215.5 255.5t310 89.5t310 -89.5t215.5 -255.5t78.5 -380t-78.5 -380t-215.5 -255.5t-310 -89.5t-310 89.5t-215.5 255.5t-78.5 380zM199 705q0 -291 149 -475.5t381 -184.5t381.5 184.5t149.5 475.5q0 192 -68 342.5t-189 233.5t-274 83 q-232 0 -381 -184t-149 -475z" />
<glyph unicode="P" horiz-adv-x="935" d="M180 0v1405q111 25 221 25q245 0 369.5 -107.5t124.5 -278.5q0 -100 -43.5 -183t-117 -136t-168.5 -82t-199 -29q-52 0 -117 7v-621h-70zM250 686q54 -8 92 -8q214 0 344.5 99.5t130.5 256.5q0 156 -99.5 243t-311.5 87q-73 0 -156 -14v-664z" />
<glyph unicode="Q" horiz-adv-x="1458" d="M125 705q0 214 78.5 380t215.5 255.5t310 89.5t310 -89.5t215.5 -255.5t78.5 -380q0 -294 -144.5 -487.5t-375.5 -227.5l-6 -2l317 -365l-59 -41l-336 398q-173 0 -310 89.5t-215.5 255.5t-78.5 380zM199 705q0 -291 149 -476.5t381 -185.5t381.5 185.5t149.5 476.5 q0 192 -68 342.5t-189 233.5t-274 83q-232 0 -381 -184t-149 -475z" />
<glyph unicode="R" horiz-adv-x="993" d="M180 0v1405q111 25 221 25q248 0 375 -104t127 -277q0 -78 -32.5 -147t-86.5 -117.5t-121 -80t-139 -42.5q120 -14 184 -82t93 -193q54 -231 104 -387h-80q-53 189 -90 354q-13 56 -28 94t-42.5 73t-67 55.5t-99.5 32.5t-142 12h-106v-621h-70zM250 684h88 q131 0 240 40.5t178 124t69 195.5q0 153 -102 236.5t-317 83.5q-73 0 -156 -14v-666z" />
<glyph unicode="S" horiz-adv-x="931" d="M92 45l12 68q136 -68 275 -68q150 0 248 87.5t98 221.5q0 114 -65.5 187t-213.5 127q-311 113 -311 379q0 175 110.5 279t272.5 104q154 0 256 -66l-12 -70q-99 70 -246 70q-132 0 -219.5 -84.5t-87.5 -218.5q0 -123 65 -200t209 -132q161 -61 240.5 -145t79.5 -222 q0 -162 -121.5 -272t-308.5 -110q-151 0 -281 65z" />
<glyph unicode="T" horiz-adv-x="937" d="M23 1335v66h897v-66h-414v-1335h-70v1335h-413z" />
<glyph unicode="U" horiz-adv-x="1257" d="M160 457v952h69v-928q0 -217 104.5 -330.5t305.5 -113.5q84 0 154 24.5t124.5 74t84.5 132.5t30 193v948h70v-932q0 -242 -124.5 -374t-350.5 -132q-219 0 -343 132.5t-124 353.5z" />
<glyph unicode="V" horiz-adv-x="1124" d="M41 1409h72l458 -1335l457 1335h72l-484 -1409h-92z" />
<glyph unicode="W" horiz-adv-x="1630" d="M41 1409h72l264 -999q30 -114 84 -344q14 67 76 344l239 979h94l236 -979q46 -189 80 -344q17 74 88 344l260 999h72l-377 -1409h-88l-238 979q-46 189 -80 344q-15 -71 -82 -344l-235 -979h-88z" />
<glyph unicode="X" horiz-adv-x="966" d="M53 0l402 711l-373 698h80l336 -641l364 641h82l-405 -694l389 -715h-84l-348 653l-365 -653h-78z" />
<glyph unicode="Y" horiz-adv-x="946" d="M37 1409h84l377 -711l374 711h82l-424 -780v-629h-69v629z" />
<glyph unicode="Z" horiz-adv-x="995" d="M80 0v51l751 1284h-692v66h781v-58l-752 -1277h756v-66h-844z" />
<glyph unicode="[" horiz-adv-x="735" d="M231 -199v1733h299v-57h-237v-1618h237v-58h-299z" />
<glyph unicode="\" horiz-adv-x="788" d="M10 1534h68l700 -1733h-65z" />
<glyph unicode="]" horiz-adv-x="735" d="M205 -141h237v1618h-237v57h299v-1733h-299v58z" />
<glyph unicode="^" horiz-adv-x="843" d="M82 461l311 647h66l303 -647h-76l-260 586l-270 -586h-74z" />
<glyph unicode="_" horiz-adv-x="1024" d="M0 -78h1024v-57h-1024v57z" />
<glyph unicode="`" horiz-adv-x="1024" d="M303 1343l90 -6l174 -239l-63 4z" />
<glyph unicode="a" horiz-adv-x="919" d="M121 246q0 82 34.5 147t93.5 104.5t132 60t154 20.5t151 -15v129q0 120 -67 178t-181 58q-111 0 -235 -74l-4 68q112 69 260 69q133 0 215 -75t82 -211v-705h-60l-8 195q-41 -106 -124.5 -160.5t-182.5 -54.5q-105 0 -182.5 72.5t-77.5 193.5zM195 258q0 -99 60.5 -157 t152.5 -58q110 0 194 95.5t84 260.5v103q-70 12 -158 12q-147 0 -240 -74.5t-93 -181.5z" />
<glyph unicode="b" horiz-adv-x="1071" d="M172 0v1505h70v-753q35 101 125 170t204 69q181 0 286.5 -139t105.5 -356q0 -122 -35 -222t-93.5 -163t-132 -97t-153.5 -34q-101 0 -189 62t-120 171l-9 -213h-59zM242 391q0 -145 90 -246.5t211 -101.5q62 0 121 26t110.5 77.5t83 140t31.5 200.5q0 84 -19 160 t-57 140.5t-104.5 102.5t-153.5 38q-84 0 -157.5 -53.5t-114.5 -135t-41 -166.5v-182z" />
<glyph unicode="c" horiz-adv-x="843" d="M109 477q0 125 36 224.5t98.5 162t144 95t175.5 32.5q125 0 217 -45l-8 -67q-96 49 -203 49q-77 0 -145.5 -27.5t-123 -80t-86.5 -138t-32 -193.5q0 -118 30 -206t83.5 -139t120.5 -76t147 -25q109 0 205 47l4 -65q-93 -45 -237 -45q-84 0 -159 30t-135.5 88.5t-96 156 t-35.5 222.5z" />
<glyph unicode="d" horiz-adv-x="1071" d="M109 475q0 122 35 222t93.5 163t131.5 97t153 34q99 0 186 -59.5t121 -165.5v739h70v-1505h-59l-9 225q-34 -103 -124.5 -174t-206.5 -71q-181 0 -286 139t-105 356zM182 483q0 -84 19 -160t57 -140t104.5 -102t153.5 -38q84 0 157.5 53t114.5 134.5t41 166.5v183 q0 145 -90 246.5t-211 101.5q-49 0 -97 -16t-93 -51t-79.5 -85.5t-55.5 -126t-21 -166.5z" />
<glyph unicode="e" horiz-adv-x="923" d="M98 463q0 234 109.5 381t269.5 147q87 0 153.5 -37t106 -100.5t59 -139.5t19.5 -161q0 -45 -6 -82h-637q0 -209 86 -318.5t246 -109.5q132 0 250 68l4 -66q-106 -65 -283 -65q-167 0 -272 127t-105 356zM174 532h571q0 194 -72.5 294t-197.5 100q-120 0 -205.5 -108 t-95.5 -286z" />
<glyph unicode="f" horiz-adv-x="548" d="M76 903v60h137v139q0 203 95.5 313.5t242.5 110.5q65 0 115 -21l-7 -63q-50 20 -118 20q-114 0 -186 -91.5t-72 -246.5v-161h247v-60h-247v-903h-70v903h-137z" />
<glyph unicode="g" horiz-adv-x="1071" d="M109 475q0 122 35 222t93.5 163t131.5 97t153 34q101 0 189 -62t120 -171l9 213h57v-916q0 -227 -114.5 -361t-319.5 -134q-75 0 -152 20.5t-127 59.5l9 69q134 -88 282 -88q163 0 257.5 114.5t94.5 309.5v168q-37 -99 -126 -166t-201 -67q-181 0 -286 139t-105 356z M182 483q0 -84 19 -160t57 -140t104.5 -102t153.5 -38q119 0 210 99t103 225v231q-7 139 -96 234.5t-205 95.5q-49 0 -97 -16t-93 -51t-79.5 -85.5t-55.5 -126t-21 -166.5z" />
<glyph unicode="h" horiz-adv-x="1021" d="M172 0v1505h70v-739q31 97 115 161t186 64q150 0 232.5 -94.5t82.5 -241.5v-655h-70v627q0 139 -66.5 219t-186.5 80q-82 0 -151 -54.5t-105.5 -134t-36.5 -159.5v-578h-70z" />
<glyph unicode="i" horiz-adv-x="413" d="M152 1233q0 23 16 39t39 16t39 -16t16 -39t-16 -39t-39 -16t-39 16t-16 39zM172 0v971h70v-971h-70z" />
<glyph unicode="j" horiz-adv-x="444" d="M-113 -385q109 68 176 150.5t103.5 207.5t36.5 299v699h69v-680q0 -195 -41.5 -335.5t-114 -229.5t-190.5 -166zM182 1233q0 23 16.5 39t39.5 16t39 -16t16 -39t-16 -39t-39 -16t-39.5 16t-16.5 39z" />
<glyph unicode="k" horiz-adv-x="847" d="M172 0v1505h70v-1044l481 514h88l-461 -488l467 -487h-104l-418 442l-53 -55v-387h-70z" />
<glyph unicode="l" horiz-adv-x="413" d="M172 0v1505h70v-1505h-70z" />
<glyph unicode="m" horiz-adv-x="1556" d="M172 0v971h59l9 -205q35 103 110 164t170 61q115 0 188.5 -64.5t98.5 -168.5q37 105 115.5 169t173.5 64q140 0 218.5 -94t78.5 -229v-668h-70v639q0 128 -61.5 206.5t-174.5 78.5q-71 0 -134 -50.5t-99.5 -129t-36.5 -160.5v-584h-69v639q0 128 -61.5 206.5t-174.5 78.5 q-71 0 -134 -50.5t-99.5 -129t-36.5 -160.5v-584h-70z" />
<glyph unicode="n" horiz-adv-x="1021" d="M172 0v971h59l11 -209q30 99 113.5 164t187.5 65q150 0 232.5 -94.5t82.5 -241.5v-655h-70v627q0 139 -66.5 219t-186.5 80q-82 0 -151 -54.5t-105.5 -134t-36.5 -159.5v-578h-70z" />
<glyph unicode="o" horiz-adv-x="1011" d="M102 485q0 220 108.5 363t295.5 143t295 -143t108 -363q0 -143 -46.5 -256.5t-139 -181t-217.5 -67.5t-217.5 67.5t-139.5 181t-47 256.5zM176 485q0 -208 94 -325t236 -117t236 117t94 325t-94 325.5t-236 117.5t-236 -117.5t-94 -325.5z" />
<glyph unicode="p" horiz-adv-x="1071" d="M172 -420v1391h59l9 -226q34 103 125 174.5t206 71.5q181 0 286.5 -139t105.5 -356q0 -122 -35 -222t-93.5 -163t-132 -97t-153.5 -34q-99 0 -186 59.5t-121 165.5v-625h-70zM242 391q0 -145 90 -246.5t211 -101.5q62 0 121 26t110.5 77.5t83 140t31.5 200.5 q0 84 -19 160t-57 140.5t-104.5 102.5t-153.5 38q-84 0 -157.5 -53.5t-114.5 -135t-41 -166.5v-182z" />
<glyph unicode="q" horiz-adv-x="1071" d="M109 475q0 122 35 222t93.5 163t131.5 97t153 34q101 0 189 -62t120 -171l9 213h59v-1391h-70v639q-35 -101 -125 -170t-204 -69q-181 0 -286 139t-105 356zM182 483q0 -84 19 -160t57 -140t104.5 -102t153.5 -38q84 0 157.5 53t114.5 134.5t41 166.5v183 q0 145 -90 246.5t-211 101.5q-49 0 -97 -16t-93 -51t-79.5 -85.5t-55.5 -126t-21 -166.5z" />
<glyph unicode="r" horiz-adv-x="550" d="M172 0v971h59l9 -193q17 92 79.5 152.5t139.5 60.5q38 0 51 -8l-8 -65q-19 8 -56 8q-64 0 -111.5 -54t-70 -135.5t-22.5 -175.5v-561h-70z" />
<glyph unicode="s" horiz-adv-x="718" d="M78 33l6 69q106 -59 221 -59q101 0 170.5 56.5t69.5 140.5q0 75 -48 122t-161 93q-108 45 -164.5 104.5t-56.5 161.5q0 123 82.5 196.5t205.5 73.5q121 0 195 -51l-6 -72q-86 60 -197 60q-86 0 -147.5 -56.5t-61.5 -140.5q0 -86 47 -131.5t158 -91.5q113 -47 170 -107 t57 -147q0 -123 -90.5 -198.5t-224.5 -75.5q-140 0 -225 53z" />
<glyph unicode="t" horiz-adv-x="626" d="M86 903v60h156v266h69v-266h244v-60h-244v-682q0 -91 40 -135.5t106 -44.5q61 0 106 25l4 -60q-44 -26 -123 -26q-90 0 -146 56.5t-56 174.5v692h-156z" />
<glyph unicode="u" horiz-adv-x="1021" d="M164 315v656h69v-627q0 -139 67 -219t187 -80q82 0 151 54.5t105.5 134t36.5 159.5v578h70v-971h-59l-11 209q-30 -99 -113.5 -164t-187.5 -65q-150 0 -232.5 94t-82.5 241z" />
<glyph unicode="v" horiz-adv-x="913" d="M57 971h82l320 -895l327 895h76l-366 -971h-76z" />
<glyph unicode="w" horiz-adv-x="1331" d="M61 971h76l252 -910l246 902h76l241 -902l252 910h76l-285 -971h-90l-235 866l-238 -866h-88z" />
<glyph unicode="x" horiz-adv-x="806" d="M35 0l317 481l-301 490h80l266 -436l281 436h80l-322 -488l303 -483h-82l-264 432l-278 -432h-80z" />
<glyph unicode="y" horiz-adv-x="856" d="M31 971h84l317 -899l326 899h78l-367 -971q-72 -179 -157.5 -282.5t-213.5 -157.5l-28 59q77 30 144.5 92t111.5 137t65 154z" />
<glyph unicode="z" horiz-adv-x="776" d="M55 0v55l555 848h-501v60h581v-58l-555 -846h555v-59h-635z" />
<glyph unicode="{" horiz-adv-x="813" d="M250 633v69q88 0 119 39t24 140l-24 319q-15 193 36.5 268.5t200.5 75.5v-57q-105 0 -147 -51.5t-33 -167.5l33 -402q6 -87 -20 -134t-93 -62q73 -17 97 -63t16 -138l-33 -397q-9 -117 33 -170.5t147 -53.5v-57q-149 0 -201.5 76t-35.5 268l28 320q9 100 -24.5 139 t-122.5 39z" />
<glyph unicode="|" horiz-adv-x="675" d="M307 -481v2048h62v-2048h-62z" />
<glyph unicode="}" horiz-adv-x="813" d="M207 -152q105 0 147 52t33 168l-33 401q-6 87 20 134.5t93 62.5q-73 17 -97 62.5t-16 137.5l33 398q9 117 -33 170t-147 53v57q149 0 201.5 -76t35.5 -268l-28 -319q-9 -100 24.5 -139.5t122.5 -39.5v-69q-88 0 -119 -38.5t-24 -139.5l24 -320q15 -193 -36.5 -268.5 t-200.5 -75.5v57z" />
<glyph unicode="~" horiz-adv-x="1150" d="M119 416q0 117 55 184.5t152 67.5q55 0 113.5 -20.5t154.5 -74.5q148 -84 229 -84q69 0 109.5 47t40.5 146h59q0 -117 -55 -184.5t-152 -67.5q-54 0 -112.5 20t-155.5 74q-152 84 -229 84q-69 0 -109.5 -46.5t-40.5 -145.5h-59z" />
<glyph unicode="&#xa1;" horiz-adv-x="454" d="M160 932q0 28 19.5 47.5t47.5 19.5t48 -19.5t20 -47.5t-20 -48t-48 -20t-47.5 20t-19.5 48zM184 -422l17 1143h53l16 -1143h-86z" />
<glyph unicode="&#xa3;" horiz-adv-x="1001" d="M141 629v57h265q-35 190 -35 283q0 97 31.5 176t82.5 128.5t112.5 76t125.5 26.5q122 0 201 -43l-6 -69q-46 26 -89 36.5t-106 10.5q-119 0 -199 -96t-80 -238q0 -105 35 -291h346v-57h-331q16 -101 16 -166q0 -79 -20 -145t-55 -113.5t-74.5 -80t-86.5 -56.5h629v-66 h-751v49q53 20 101.5 55t90.5 84.5t67 119.5t25 149q0 82 -14 170h-281z" />
<glyph unicode="&#xa5;" horiz-adv-x="983" d="M102 1341h84l306 -600l315 600h74l-316 -591h240v-58h-281v-178h281v-57h-281v-457h-69v457h-281v57h281v178h-281v58h246z" />
<glyph unicode="&#xa8;" horiz-adv-x="1024" d="M334 1212q0 23 16 39.5t39 16.5t39 -16.5t16 -39.5t-16 -39t-39 -16t-39 16t-16 39zM580 1212q0 23 16 39.5t39 16.5t39 -16.5t16 -39.5t-16 -39t-39 -16t-39 16t-16 39z" />
<glyph unicode="&#xab;" horiz-adv-x="880" d="M154 516l243 346h82l-243 -346l243 -346h-82zM379 516l244 346h82l-244 -346l244 -346h-82z" />
<glyph unicode="&#xad;" horiz-adv-x="712" d="M115 524v58h483v-58h-483z" />
<glyph unicode="&#xb4;" horiz-adv-x="1024" d="M367 1096l174 239l90 6l-201 -241z" />
<glyph unicode="&#xb8;" horiz-adv-x="1024" d="M362 -303l11 49q54 -25 104 -25q45 0 73 23.5t28 58.5q0 44 -33 64t-117 20l76 127h63l-47 -82q63 -7 95 -40.5t32 -81.5q0 -67 -50 -103.5t-126 -36.5q-53 0 -109 27z" />
<glyph unicode="&#xbb;" horiz-adv-x="880" d="M176 170l244 346l-244 346h82l244 -346l-244 -346h-82zM401 170l244 346l-244 346h82l244 -346l-244 -346h-82z" />
<glyph unicode="&#xbf;" horiz-adv-x="765" d="M90 -152q0 88 51 191t189 305q56 82 88 180.5t35 196.5h65q-6 -223 -135 -416q-130 -195 -174.5 -286.5t-44.5 -165.5q0 -112 79 -171t197 -59q68 0 143 26t130 70l8 -69q-117 -92 -293 -92q-63 0 -122 18t-108 52.5t-78.5 91.5t-29.5 128zM414 932q0 28 19.5 47.5 t47.5 19.5t48 -19.5t20 -47.5t-20 -48t-48 -20t-47.5 20t-19.5 48z" />
<glyph unicode="&#xc0;" horiz-adv-x="1134" d="M45 0l479 1409h90l476 -1409h-74l-170 506h-559l-170 -506h-72zM309 571h516l-258 768zM360 1757l91 -6l174 -240l-64 5z" />
<glyph unicode="&#xc1;" horiz-adv-x="1134" d="M45 0l479 1409h90l476 -1409h-74l-170 506h-559l-170 -506h-72zM309 571h516l-258 768zM526 1509l174 240l91 6l-201 -242z" />
<glyph unicode="&#xc2;" horiz-adv-x="1134" d="M45 0l479 1409h90l476 -1409h-74l-170 506h-559l-170 -506h-72zM309 571h516l-258 768zM395 1507l146 230h59l145 -230h-69l-107 187l-106 -187h-68z" />
<glyph unicode="&#xc3;" horiz-adv-x="1134" d="M45 0l479 1409h90l476 -1409h-74l-170 506h-559l-170 -506h-72zM309 571h516l-258 768zM377 1577v14q0 42 24 65t62 23q50 0 123 -26q56 -21 88 -21q41 0 41 47h47v-14q0 -42 -24 -65t-62 -23q-47 0 -123 27q-56 20 -88 20q-41 0 -41 -47h-47z" />
<glyph unicode="&#xc4;" horiz-adv-x="1134" d="M45 0l479 1409h90l476 -1409h-74l-170 506h-559l-170 -506h-72zM309 571h516l-258 768zM391 1626q0 23 16 39t39 16t39.5 -16t16.5 -39t-16.5 -39t-39.5 -16t-39 16t-16 39zM637 1626q0 23 16 39t39 16t39.5 -16t16.5 -39t-16.5 -39t-39.5 -16t-39 16t-16 39z" />
<glyph unicode="&#xc5;" horiz-adv-x="1134" d="M45 0l479 1409h90l476 -1409h-74l-170 506h-559l-170 -506h-72zM309 571h516l-258 768zM436 1645q0 56 38.5 93.5t94.5 37.5t94.5 -37.5t38.5 -93.5q0 -57 -38.5 -94.5t-94.5 -37.5t-94.5 37.5t-38.5 94.5zM494 1645q0 -39 21 -60.5t54 -21.5t54.5 21.5t21.5 60.5 t-21.5 60t-54.5 21t-54 -21t-21 -60z" />
<glyph unicode="&#xc6;" horiz-adv-x="1697" d="M66 0l725 1401h737v-66h-629l70 -592h534v-65h-526l74 -612h567v-66h-631l-59 506h-527l-260 -506h-75zM434 571h486l-91 770z" />
<glyph unicode="&#xc7;" horiz-adv-x="1218" d="M125 694q0 161 53 300t143.5 233.5t211.5 148.5t255 54q112 0 204 -24.5t147 -62.5l-9 -67q-80 46 -157 67t-182 21q-118 0 -225.5 -47.5t-188.5 -131.5t-129.5 -207.5t-48.5 -266.5q0 -163 47 -292.5t128 -209.5t183 -122t217 -42q102 0 178 20.5t162 67.5l6 -67 q-146 -80 -334 -86l-28 -48q63 -7 95 -40.5t32 -81.5q0 -67 -50 -103.5t-126 -36.5q-53 0 -109 27l10 49q54 -25 105 -25q45 0 72.5 23.5t27.5 58.5q0 44 -32.5 64t-116.5 20l55 93q-123 6 -230 56.5t-189 138.5t-129.5 222t-47.5 297z" />
<glyph unicode="&#xc8;" horiz-adv-x="905" d="M180 0v1401h623v-66h-553v-592h487v-65h-487v-612h561v-66h-631zM283 1757l90 -6l174 -240l-64 5z" />
<glyph unicode="&#xc9;" horiz-adv-x="905" d="M180 0v1401h623v-66h-553v-592h487v-65h-487v-612h561v-66h-631zM449 1509l174 240l90 6l-201 -242z" />
<glyph unicode="&#xca;" horiz-adv-x="905" d="M180 0v1401h623v-66h-553v-592h487v-65h-487v-612h561v-66h-631zM317 1507l146 230h59l146 -230h-70l-106 187l-107 -187h-68z" />
<glyph unicode="&#xcb;" horiz-adv-x="905" d="M180 0v1401h623v-66h-553v-592h487v-65h-487v-612h561v-66h-631zM313 1626q0 23 16.5 39t39.5 16t39 -16t16 -39t-16 -39t-39 -16t-39.5 16t-16.5 39zM559 1626q0 23 16 39t39 16t39.5 -16t16.5 -39t-16.5 -39t-39.5 -16t-39 16t-16 39z" />
<glyph unicode="&#xcc;" horiz-adv-x="421" d="M6 1757l90 -6l174 -240l-63 5zM180 0v1409h70v-1409h-70z" />
<glyph unicode="&#xcd;" horiz-adv-x="421" d="M172 1509l174 240l90 6l-200 -242zM180 0v1409h70v-1409h-70z" />
<glyph unicode="&#xce;" horiz-adv-x="421" d="M41 1507l145 230h60l145 -230h-69l-107 187l-106 -187h-68zM180 0v1409h70v-1409h-70z" />
<glyph unicode="&#xcf;" horiz-adv-x="421" d="M37 1626q0 23 16 39t39 16t39 -16t16 -39t-16 -39t-39 -16t-39 16t-16 39zM180 0v1409h70v-1409h-70zM283 1626q0 23 16 39t39 16t39 -16t16 -39t-16 -39t-39 -16t-39 16t-16 39z" />
<glyph unicode="&#xd1;" horiz-adv-x="1236" d="M168 0v1409h80l594 -1014q96 -165 170 -311q-6 185 -6 322v1003h67v-1409h-80l-608 1032q-89 150 -156 289q7 -143 7 -301v-1020h-68zM428 1577v14q0 42 24 65t62 23q50 0 123 -26q56 -21 88 -21q41 0 41 47h47v-14q0 -42 -24 -65t-62 -23q-47 0 -123 27q-56 20 -88 20 q-41 0 -41 -47h-47z" />
<glyph unicode="&#xd2;" horiz-adv-x="1458" d="M125 705q0 214 78.5 380t215.5 255.5t310 89.5t310 -89.5t215.5 -255.5t78.5 -380t-78.5 -380t-215.5 -255.5t-310 -89.5t-310 89.5t-215.5 255.5t-78.5 380zM199 705q0 -291 149 -475.5t381 -184.5t381.5 184.5t149.5 475.5q0 192 -68 342.5t-189 233.5t-274 83 q-232 0 -381 -184t-149 -475zM520 1757l90 -6l174 -240l-63 5z" />
<glyph unicode="&#xd3;" horiz-adv-x="1458" d="M125 705q0 214 78.5 380t215.5 255.5t310 89.5t310 -89.5t215.5 -255.5t78.5 -380t-78.5 -380t-215.5 -255.5t-310 -89.5t-310 89.5t-215.5 255.5t-78.5 380zM199 705q0 -291 149 -475.5t381 -184.5t381.5 184.5t149.5 475.5q0 192 -68 342.5t-189 233.5t-274 83 q-232 0 -381 -184t-149 -475zM686 1509l174 240l90 6l-200 -242z" />
<glyph unicode="&#xd4;" horiz-adv-x="1458" d="M125 705q0 214 78.5 380t215.5 255.5t310 89.5t310 -89.5t215.5 -255.5t78.5 -380t-78.5 -380t-215.5 -255.5t-310 -89.5t-310 89.5t-215.5 255.5t-78.5 380zM199 705q0 -291 149 -475.5t381 -184.5t381.5 184.5t149.5 475.5q0 192 -68 342.5t-189 233.5t-274 83 q-232 0 -381 -184t-149 -475zM555 1507l145 230h60l145 -230h-69l-107 187l-106 -187h-68z" />
<glyph unicode="&#xd5;" horiz-adv-x="1458" d="M125 705q0 214 78.5 380t215.5 255.5t310 89.5t310 -89.5t215.5 -255.5t78.5 -380t-78.5 -380t-215.5 -255.5t-310 -89.5t-310 89.5t-215.5 255.5t-78.5 380zM199 705q0 -291 149 -475.5t381 -184.5t381.5 184.5t149.5 475.5q0 192 -68 342.5t-189 233.5t-274 83 q-232 0 -381 -184t-149 -475zM537 1577v14q0 42 24 65t62 23q49 0 122 -26q55 -21 89 -21q40 0 40 47h48v-14q0 -42 -24 -65t-62 -23q-47 0 -123 27q-56 20 -88 20q-41 0 -41 -47h-47z" />
<glyph unicode="&#xd6;" horiz-adv-x="1458" d="M125 705q0 214 78.5 380t215.5 255.5t310 89.5t310 -89.5t215.5 -255.5t78.5 -380t-78.5 -380t-215.5 -255.5t-310 -89.5t-310 89.5t-215.5 255.5t-78.5 380zM199 705q0 -291 149 -475.5t381 -184.5t381.5 184.5t149.5 475.5q0 192 -68 342.5t-189 233.5t-274 83 q-232 0 -381 -184t-149 -475zM551 1626q0 23 16 39t39 16t39.5 -16t16.5 -39t-16.5 -39t-39.5 -16t-39 16t-16 39zM797 1626q0 23 16 39t39 16t39 -16t16 -39t-16 -39t-39 -16t-39 16t-16 39z" />
<glyph unicode="&#xd8;" horiz-adv-x="1458" d="M125 705q0 214 78.5 380t215.5 255.5t310 89.5q216 0 377 -142l86 113l53 -41l-92 -119q86 -97 133 -234t47 -302q0 -214 -78.5 -380t-215.5 -255.5t-310 -89.5q-247 0 -412 176l-112 -148l-53 41l120 158q-147 200 -147 498zM199 705q0 -259 120 -437l744 965 q-140 131 -334 131q-232 0 -381 -184t-149 -475zM362 213q146 -168 367 -168q232 0 381.5 184.5t149.5 475.5q0 292 -152 477z" />
<glyph unicode="&#xd9;" horiz-adv-x="1257" d="M160 457v952h69v-928q0 -217 104.5 -330.5t305.5 -113.5q84 0 154 24.5t124.5 74t84.5 132.5t30 193v948h70v-932q0 -242 -124.5 -374t-350.5 -132q-219 0 -343 132.5t-124 353.5zM422 1778l90 -6l174 -240l-63 4z" />
<glyph unicode="&#xda;" horiz-adv-x="1257" d="M160 457v952h69v-928q0 -217 104.5 -330.5t305.5 -113.5q84 0 154 24.5t124.5 74t84.5 132.5t30 193v948h70v-932q0 -242 -124.5 -374t-350.5 -132q-219 0 -343 132.5t-124 353.5zM588 1530l174 239l90 7l-201 -242z" />
<glyph unicode="&#xdb;" horiz-adv-x="1257" d="M160 457v952h69v-928q0 -217 104.5 -330.5t305.5 -113.5q84 0 154 24.5t124.5 74t84.5 132.5t30 193v948h70v-932q0 -242 -124.5 -374t-350.5 -132q-219 0 -343 132.5t-124 353.5zM457 1528l145 229h60l145 -229h-70l-106 186l-107 -186h-67z" />
<glyph unicode="&#xdc;" horiz-adv-x="1257" d="M160 457v952h69v-928q0 -217 104.5 -330.5t305.5 -113.5q84 0 154 24.5t124.5 74t84.5 132.5t30 193v948h70v-932q0 -242 -124.5 -374t-350.5 -132q-219 0 -343 132.5t-124 353.5zM453 1647q0 23 16 39t39 16t39 -16t16 -39t-16 -39.5t-39 -16.5t-39 16.5t-16 39.5z M698 1647q0 23 16.5 39t39.5 16t39 -16t16 -39t-16 -39.5t-39 -16.5t-39.5 16.5t-16.5 39.5z" />
<glyph unicode="&#xdd;" horiz-adv-x="946" d="M37 1409h84l377 -711l374 711h82l-424 -780v-629h-69v629zM453 1550l174 240l90 6l-201 -242z" />
<glyph unicode="&#xdf;" horiz-adv-x="1095" d="M76 903v60h121v145q0 191 112 304.5t269 113.5q179 0 282 -108t103 -263q0 -149 -96 -252.5t-249 -138.5q172 -36 266.5 -135.5t94.5 -249.5q0 -173 -116 -284t-298 -111q-130 0 -209 32l6 68q98 -37 213 -37q141 0 235.5 93.5t94.5 224.5q0 165 -121 259.5t-348 94.5v59 q193 0 323 102t130 261q0 141 -82 232t-227 91q-128 0 -221 -97t-93 -239v-1128h-69v903h-121z" />
<glyph unicode="&#xe0;" horiz-adv-x="919" d="M121 246q0 82 34.5 147t93.5 104.5t132 60t154 20.5t151 -15v129q0 120 -67 178t-181 58q-111 0 -235 -74l-4 68q112 69 260 69q133 0 215 -75t82 -211v-705h-60l-8 195q-41 -106 -124.5 -160.5t-182.5 -54.5q-105 0 -182.5 72.5t-77.5 193.5zM195 258q0 -99 60.5 -157 t152.5 -58q110 0 194 95.5t84 260.5v103q-70 12 -158 12q-147 0 -240 -74.5t-93 -181.5zM266 1343l90 -6l174 -239l-63 4z" />
<glyph unicode="&#xe1;" horiz-adv-x="919" d="M121 246q0 82 34.5 147t93.5 104.5t132 60t154 20.5t151 -15v129q0 120 -67 178t-181 58q-111 0 -235 -74l-4 68q112 69 260 69q133 0 215 -75t82 -211v-705h-60l-8 195q-41 -106 -124.5 -160.5t-182.5 -54.5q-105 0 -182.5 72.5t-77.5 193.5zM195 258q0 -99 60.5 -157 t152.5 -58q110 0 194 95.5t84 260.5v103q-70 12 -158 12q-147 0 -240 -74.5t-93 -181.5zM432 1096l174 239l90 6l-200 -241z" />
<glyph unicode="&#xe2;" horiz-adv-x="919" d="M121 246q0 82 34.5 147t93.5 104.5t132 60t154 20.5t151 -15v129q0 120 -67 178t-181 58q-111 0 -235 -74l-4 68q112 69 260 69q133 0 215 -75t82 -211v-705h-60l-8 195q-41 -106 -124.5 -160.5t-182.5 -54.5q-105 0 -182.5 72.5t-77.5 193.5zM195 258q0 -99 60.5 -157 t152.5 -58q110 0 194 95.5t84 260.5v103q-70 12 -158 12q-147 0 -240 -74.5t-93 -181.5zM301 1094l145 229h60l145 -229h-69l-107 186l-106 -186h-68z" />
<glyph unicode="&#xe3;" horiz-adv-x="919" d="M121 246q0 82 34.5 147t93.5 104.5t132 60t154 20.5t151 -15v129q0 120 -67 178t-181 58q-111 0 -235 -74l-4 68q112 69 260 69q133 0 215 -75t82 -211v-705h-60l-8 195q-41 -106 -124.5 -160.5t-182.5 -54.5q-105 0 -182.5 72.5t-77.5 193.5zM195 258q0 -99 60.5 -157 t152.5 -58q110 0 194 95.5t84 260.5v103q-70 12 -158 12q-147 0 -240 -74.5t-93 -181.5zM283 1163v15q0 42 24 65t62 23q47 0 123 -27q53 -20 88 -20q41 0 41 47h47v-15q0 -42 -24 -65t-62 -23q-47 0 -123 27q-56 20 -88 20q-41 0 -41 -47h-47z" />
<glyph unicode="&#xe4;" horiz-adv-x="919" d="M121 246q0 82 34.5 147t93.5 104.5t132 60t154 20.5t151 -15v129q0 120 -67 178t-181 58q-111 0 -235 -74l-4 68q112 69 260 69q133 0 215 -75t82 -211v-705h-60l-8 195q-41 -106 -124.5 -160.5t-182.5 -54.5q-105 0 -182.5 72.5t-77.5 193.5zM195 258q0 -99 60.5 -157 t152.5 -58q110 0 194 95.5t84 260.5v103q-70 12 -158 12q-147 0 -240 -74.5t-93 -181.5zM297 1212q0 23 16 39.5t39 16.5t39.5 -16.5t16.5 -39.5t-16.5 -39t-39.5 -16t-39 16t-16 39zM543 1212q0 23 16 39.5t39 16.5t39 -16.5t16 -39.5t-16 -39t-39 -16t-39 16t-16 39z" />
<glyph unicode="&#xe5;" horiz-adv-x="919" d="M121 246q0 82 34.5 147t93.5 104.5t132 60t154 20.5t151 -15v129q0 120 -67 178t-181 58q-111 0 -235 -74l-4 68q112 69 260 69q133 0 215 -75t82 -211v-705h-60l-8 195q-41 -106 -124.5 -160.5t-182.5 -54.5q-105 0 -182.5 72.5t-77.5 193.5zM195 258q0 -99 60.5 -157 t152.5 -58q110 0 194 95.5t84 260.5v103q-70 12 -158 12q-147 0 -240 -74.5t-93 -181.5zM342 1231q0 56 38.5 93.5t94.5 37.5t94.5 -37.5t38.5 -93.5t-38.5 -93.5t-94.5 -37.5t-94.5 37.5t-38.5 93.5zM399 1231q0 -39 21.5 -60.5t54.5 -21.5t54.5 21.5t21.5 60.5t-21.5 60.5 t-54.5 21.5t-54.5 -21.5t-21.5 -60.5z" />
<glyph unicode="&#xe6;" horiz-adv-x="1521" d="M121 246q0 62 23.5 113.5t63 86.5t93.5 59t113.5 35t124.5 11q118 0 182 -10v110q0 135 -76.5 206t-193.5 71q-116 0 -240 -74l-4 68q112 69 264 69q112 0 195 -61t110 -170q46 109 126 170t179 61q70 0 126.5 -24.5t94 -66.5t63.5 -98.5t37 -118.5t11 -130q0 -45 -6 -82 h-614q0 -209 84.5 -318.5t238.5 -109.5q124 0 242 68l4 -66q-106 -65 -275 -65q-119 0 -207.5 71t-129.5 205q-35 -126 -142.5 -201t-220.5 -75q-110 0 -188 72.5t-78 193.5zM195 258q0 -99 57.5 -157t148.5 -58q52 0 107.5 25t103 70t78.5 115.5t31 152.5v71 q-64 10 -189 10q-149 0 -243 -65t-94 -164zM795 532h548q0 195 -69.5 294.5t-194.5 99.5q-118 0 -196 -107t-88 -287z" />
<glyph unicode="&#xe7;" horiz-adv-x="843" d="M109 477q0 125 36 224.5t98.5 162t144 95t175.5 32.5q125 0 217 -45l-8 -67q-96 49 -203 49q-77 0 -145.5 -27.5t-123 -80t-86.5 -138t-32 -193.5q0 -118 30 -206t83.5 -139t120.5 -76t147 -25q109 0 205 47l4 -65q-89 -42 -207 -45l-28 -48q63 -7 95 -40.5t32 -81.5 q0 -67 -50.5 -103.5t-126.5 -36.5q-53 0 -108 27l10 49q54 -25 105 -25q45 0 72.5 23.5t27.5 58.5q0 44 -33 64t-117 20l56 95q-79 5 -148 38t-124 92t-87 153t-32 212z" />
<glyph unicode="&#xe8;" horiz-adv-x="923" d="M98 463q0 234 109.5 381t269.5 147q87 0 153.5 -37t106 -100.5t59 -139.5t19.5 -161q0 -45 -6 -82h-637q0 -209 86 -318.5t246 -109.5q132 0 250 68l4 -66q-106 -65 -283 -65q-167 0 -272 127t-105 356zM174 532h571q0 194 -72.5 294t-197.5 100q-120 0 -205.5 -108 t-95.5 -286zM262 1343l90 -6l174 -239l-63 4z" />
<glyph unicode="&#xe9;" horiz-adv-x="923" d="M98 463q0 234 109.5 381t269.5 147q87 0 153.5 -37t106 -100.5t59 -139.5t19.5 -161q0 -45 -6 -82h-637q0 -209 86 -318.5t246 -109.5q132 0 250 68l4 -66q-106 -65 -283 -65q-167 0 -272 127t-105 356zM174 532h571q0 194 -72.5 294t-197.5 100q-120 0 -205.5 -108 t-95.5 -286zM428 1096l174 239l90 6l-200 -241z" />
<glyph unicode="&#xea;" horiz-adv-x="923" d="M98 463q0 234 109.5 381t269.5 147q87 0 153.5 -37t106 -100.5t59 -139.5t19.5 -161q0 -45 -6 -82h-637q0 -209 86 -318.5t246 -109.5q132 0 250 68l4 -66q-106 -65 -283 -65q-167 0 -272 127t-105 356zM174 532h571q0 194 -72.5 294t-197.5 100q-120 0 -205.5 -108 t-95.5 -286zM297 1094l145 229h60l145 -229h-69l-107 186l-106 -186h-68z" />
<glyph unicode="&#xeb;" horiz-adv-x="923" d="M98 463q0 234 109.5 381t269.5 147q87 0 153.5 -37t106 -100.5t59 -139.5t19.5 -161q0 -45 -6 -82h-637q0 -209 86 -318.5t246 -109.5q132 0 250 68l4 -66q-106 -65 -283 -65q-167 0 -272 127t-105 356zM174 532h571q0 194 -72.5 294t-197.5 100q-120 0 -205.5 -108 t-95.5 -286zM293 1212q0 23 16 39.5t39 16.5t39 -16.5t16 -39.5t-16 -39t-39 -16t-39 16t-16 39zM539 1212q0 23 16 39.5t39 16.5t39 -16.5t16 -39.5t-16 -39t-39 -16t-39 16t-16 39z" />
<glyph unicode="&#xec;" horiz-adv-x="397" d="M-10 1343l90 -6l174 -239l-64 4zM164 0v971h69v-971h-69z" />
<glyph unicode="&#xed;" horiz-adv-x="397" d="M156 1096l174 239l90 6l-201 -241zM164 0v971h69v-971h-69z" />
<glyph unicode="&#xee;" horiz-adv-x="397" d="M25 1094l145 229h59l146 -229h-70l-106 186l-107 -186h-67zM164 0v971h69v-971h-69z" />
<glyph unicode="&#xef;" horiz-adv-x="397" d="M20 1212q0 23 16.5 39.5t39.5 16.5t39 -16.5t16 -39.5t-16 -39t-39 -16t-39.5 16t-16.5 39zM164 0v971h69v-971h-69zM266 1212q0 23 16.5 39.5t39.5 16.5t39 -16.5t16 -39.5t-16 -39t-39 -16t-39.5 16t-16.5 39z" />
<glyph unicode="&#xf1;" horiz-adv-x="1021" d="M172 0v971h59l11 -209q30 99 113.5 164t187.5 65q150 0 232.5 -94.5t82.5 -241.5v-655h-70v627q0 139 -66.5 219t-186.5 80q-82 0 -151 -54.5t-105.5 -134t-36.5 -159.5v-578h-70zM317 1163v15q0 42 24 65t62 23q47 0 123 -27q53 -20 88 -20q41 0 41 47h47v-15 q0 -42 -24 -65t-62 -23q-46 0 -122 27q-56 20 -88 20q-41 0 -41 -47h-48z" />
<glyph unicode="&#xf2;" horiz-adv-x="1011" d="M102 485q0 220 108.5 363t295.5 143t295 -143t108 -363q0 -143 -46.5 -256.5t-139 -181t-217.5 -67.5t-217.5 67.5t-139.5 181t-47 256.5zM176 485q0 -208 94 -325t236 -117t236 117t94 325t-94 325.5t-236 117.5t-236 -117.5t-94 -325.5zM297 1343l90 -6l174 -239l-63 4 z" />
<glyph unicode="&#xf3;" horiz-adv-x="1011" d="M102 485q0 220 108.5 363t295.5 143t295 -143t108 -363q0 -143 -46.5 -256.5t-139 -181t-217.5 -67.5t-217.5 67.5t-139.5 181t-47 256.5zM176 485q0 -208 94 -325t236 -117t236 117t94 325t-94 325.5t-236 117.5t-236 -117.5t-94 -325.5zM463 1096l174 239l90 6 l-201 -241z" />
<glyph unicode="&#xf4;" horiz-adv-x="1011" d="M102 485q0 220 108.5 363t295.5 143t295 -143t108 -363q0 -143 -46.5 -256.5t-139 -181t-217.5 -67.5t-217.5 67.5t-139.5 181t-47 256.5zM176 485q0 -208 94 -325t236 -117t236 117t94 325t-94 325.5t-236 117.5t-236 -117.5t-94 -325.5zM332 1094l145 229h60l145 -229 h-70l-106 186l-107 -186h-67z" />
<glyph unicode="&#xf5;" horiz-adv-x="1011" d="M102 485q0 220 108.5 363t295.5 143t295 -143t108 -363q0 -143 -46.5 -256.5t-139 -181t-217.5 -67.5t-217.5 67.5t-139.5 181t-47 256.5zM176 485q0 -208 94 -325t236 -117t236 117t94 325t-94 325.5t-236 117.5t-236 -117.5t-94 -325.5zM313 1163v15q0 42 24 65t62 23 q47 0 123 -27q53 -20 88 -20q41 0 41 47h47v-15q0 -42 -24 -65t-62 -23q-47 0 -123 27q-56 20 -88 20q-41 0 -41 -47h-47z" />
<glyph unicode="&#xf6;" horiz-adv-x="1011" d="M102 485q0 220 108.5 363t295.5 143t295 -143t108 -363q0 -143 -46.5 -256.5t-139 -181t-217.5 -67.5t-217.5 67.5t-139.5 181t-47 256.5zM176 485q0 -208 94 -325t236 -117t236 117t94 325t-94 325.5t-236 117.5t-236 -117.5t-94 -325.5zM328 1212q0 23 16 39.5t39 16.5 t39 -16.5t16 -39.5t-16 -39t-39 -16t-39 16t-16 39zM573 1212q0 23 16.5 39.5t39.5 16.5t39 -16.5t16 -39.5t-16 -39t-39 -16t-39.5 16t-16.5 39z" />
<glyph unicode="&#xf8;" horiz-adv-x="1003" d="M90 0l109 141q-97 139 -97 344q0 220 108.5 363t295.5 143q159 0 262 -106l96 125l49 -39l-102 -135q98 -140 98 -351q0 -143 -46.5 -256.5t-139 -181t-217.5 -67.5q-162 0 -266 110l-101 -129zM176 485q0 -169 68 -286l483 630q-89 99 -221 99q-142 0 -236 -117.5 t-94 -325.5zM281 145q89 -102 225 -102q142 0 236 117t94 325q0 176 -72 291z" />
<glyph unicode="&#xf9;" horiz-adv-x="1021" d="M164 315v656h69v-627q0 -139 67 -219t187 -80q82 0 151 54.5t105.5 134t36.5 159.5v578h70v-971h-59l-11 209q-30 -99 -113.5 -164t-187.5 -65q-150 0 -232.5 94t-82.5 241zM303 1343l90 -6l174 -239l-63 4z" />
<glyph unicode="&#xfa;" horiz-adv-x="1021" d="M164 315v656h69v-627q0 -139 67 -219t187 -80q82 0 151 54.5t105.5 134t36.5 159.5v578h70v-971h-59l-11 209q-30 -99 -113.5 -164t-187.5 -65q-150 0 -232.5 94t-82.5 241zM469 1096l174 239l90 6l-201 -241z" />
<glyph unicode="&#xfb;" horiz-adv-x="1021" d="M164 315v656h69v-627q0 -139 67 -219t187 -80q82 0 151 54.5t105.5 134t36.5 159.5v578h70v-971h-59l-11 209q-30 -99 -113.5 -164t-187.5 -65q-150 0 -232.5 94t-82.5 241zM338 1094l145 229h60l145 -229h-70l-106 186l-106 -186h-68z" />
<glyph unicode="&#xfc;" horiz-adv-x="1021" d="M164 315v656h69v-627q0 -139 67 -219t187 -80q82 0 151 54.5t105.5 134t36.5 159.5v578h70v-971h-59l-11 209q-30 -99 -113.5 -164t-187.5 -65q-150 0 -232.5 94t-82.5 241zM334 1212q0 23 16 39.5t39 16.5t39 -16.5t16 -39.5t-16 -39t-39 -16t-39 16t-16 39zM580 1212 q0 23 16 39.5t39 16.5t39 -16.5t16 -39.5t-16 -39t-39 -16t-39 16t-16 39z" />
<glyph unicode="&#xfd;" horiz-adv-x="856" d="M31 971h84l317 -899l326 899h78l-367 -971q-72 -179 -157.5 -282.5t-213.5 -157.5l-28 59q77 30 144.5 92t111.5 137t65 154zM389 1096l174 239l90 6l-200 -241z" />
<glyph unicode="&#xff;" horiz-adv-x="856" d="M31 971h84l317 -899l326 899h78l-367 -971q-72 -179 -157.5 -282.5t-213.5 -157.5l-28 59q77 30 144.5 92t111.5 137t65 154zM254 1212q0 23 16 39.5t39 16.5t39.5 -16.5t16.5 -39.5t-16.5 -39t-39.5 -16t-39 16t-16 39zM500 1212q0 23 16 39.5t39 16.5t39 -16.5 t16 -39.5t-16 -39t-39 -16t-39 16t-16 39z" />
<glyph unicode="&#x152;" horiz-adv-x="1984" d="M125 705q0 324 168.5 524.5t431.5 200.5q191 0 329.5 -103.5t205.5 -288.5v363h622v-66h-553v-592h488v-65h-488v-612h561v-66h-630v371q-67 -185 -205.5 -288t-329.5 -103q-263 0 -431.5 200.5t-168.5 524.5zM199 705q0 -291 149 -475.5t381 -184.5t381.5 184.5 t149.5 475.5q0 192 -68 342.5t-189 233.5t-274 83q-232 0 -381 -184t-149 -475z" />
<glyph unicode="&#x153;" horiz-adv-x="1660" d="M102 485q0 220 108.5 363t295.5 143q137 0 231 -79t135 -216q43 136 134.5 215.5t207.5 79.5q87 0 153.5 -37t106 -100.5t59 -139.5t19.5 -161q0 -45 -6 -82h-637q0 -209 86 -318.5t246 -109.5q132 0 250 68l4 -66q-106 -65 -283 -65q-123 0 -212.5 75t-129.5 213 q-43 -134 -136 -211t-228 -77q-125 0 -217.5 67.5t-139.5 181t-47 256.5zM176 485q0 -208 94 -325t236 -117q144 0 237 117t93 325t-94 325.5t-236 117.5t-236 -117.5t-94 -325.5zM911 532h572q0 194 -73 294t-198 100q-120 0 -205.5 -108t-95.5 -286z" />
<glyph unicode="&#x178;" horiz-adv-x="946" d="M37 1409h84l377 -711l374 711h82l-424 -780v-629h-69v629zM317 1667q0 23 16.5 39t39.5 16t39 -16t16 -39t-16 -39t-39 -16t-39.5 16t-16.5 39zM563 1667q0 23 16 39t39 16t39.5 -16t16.5 -39t-16.5 -39t-39.5 -16t-39 16t-16 39z" />
<glyph unicode="&#x2c6;" horiz-adv-x="1024" d="M338 1094l145 229h60l145 -229h-70l-106 186l-106 -186h-68z" />
<glyph unicode="&#x2dc;" horiz-adv-x="1024" d="M319 1163v15q0 41 24.5 64.5t62.5 23.5q46 0 122 -27q53 -20 88 -20q41 0 41 47h48v-15q0 -41 -24.5 -64.5t-62.5 -23.5q-46 0 -122 27q-56 20 -88 20q-41 0 -41 -47h-48z" />
<glyph unicode="&#x2000;" horiz-adv-x="898" />
<glyph unicode="&#x2001;" horiz-adv-x="1796" />
<glyph unicode="&#x2002;" horiz-adv-x="898" />
<glyph unicode="&#x2003;" horiz-adv-x="1796" />
<glyph unicode="&#x2004;" horiz-adv-x="598" />
<glyph unicode="&#x2005;" horiz-adv-x="449" />
<glyph unicode="&#x2006;" horiz-adv-x="299" />
<glyph unicode="&#x2007;" horiz-adv-x="299" />
<glyph unicode="&#x2008;" horiz-adv-x="224" />
<glyph unicode="&#x2009;" horiz-adv-x="359" />
<glyph unicode="&#x200a;" horiz-adv-x="99" />
<glyph unicode="&#x2010;" horiz-adv-x="712" d="M115 524v58h483v-58h-483z" />
<glyph unicode="&#x2011;" horiz-adv-x="712" d="M115 524v58h483v-58h-483z" />
<glyph unicode="&#x2012;" horiz-adv-x="712" d="M115 524v58h483v-58h-483z" />
<glyph unicode="&#x2013;" horiz-adv-x="1024" d="M115 524v58h794v-58h-794z" />
<glyph unicode="&#x2014;" horiz-adv-x="2048" d="M115 524v58h1818v-58h-1818z" />
<glyph unicode="&#x2018;" horiz-adv-x="419" d="M76 948l241 547l56 10l-215 -553z" />
<glyph unicode="&#x2019;" horiz-adv-x="438" d="M76 948l215 553l82 4l-242 -547z" />
<glyph unicode="&#x201c;" horiz-adv-x="624" d="M76 948l241 547l56 10l-215 -553zM281 948l241 547l56 10l-216 -553z" />
<glyph unicode="&#x201d;" horiz-adv-x="622" d="M76 948l215 553l82 4l-242 -547zM260 948l215 553l82 4l-242 -547z" />
<glyph unicode="&#x201e;" horiz-adv-x="600" d="M-55 -301l194 512l84 4l-219 -506zM150 -301l194 512l84 4l-219 -506z" />
<glyph unicode="&#x2026;" horiz-adv-x="1050" d="M113 55q0 28 19.5 48t47.5 20t48 -20t20 -48t-20 -47.5t-48 -19.5t-47.5 19.5t-19.5 47.5zM440 55q0 28 20 48t48 20t47.5 -20t19.5 -48t-19.5 -47.5t-47.5 -19.5t-48 19.5t-20 47.5zM768 55q0 28 20 48t48 20t47.5 -20t19.5 -48t-19.5 -47.5t-47.5 -19.5t-48 19.5 t-20 47.5z" />
<glyph unicode="&#x202f;" horiz-adv-x="359" />
<glyph unicode="&#x2039;" horiz-adv-x="655" d="M154 516l243 346h82l-243 -346l243 -346h-82z" />
<glyph unicode="&#x203a;" horiz-adv-x="655" d="M176 170l244 346l-244 346h82l244 -346l-244 -346h-82z" />
<glyph unicode="&#x205f;" horiz-adv-x="449" />
<glyph unicode="&#x20ac;" d="M111 508l8 57h65q-2 32 -1.5 90t3.5 90h-49l8 58h45q25 269 145.5 421t321.5 152q154 0 228 -57l-8 -72q-84 64 -222 64q-89 0 -160.5 -38.5t-119 -107.5t-76.5 -160t-39 -202h426l-10 -58h-422q-3 -29 -3.5 -88t1.5 -92h399l-8 -57h-387q25 -240 125 -351.5t258 -111.5 q136 0 227 68l11 -68q-57 -37 -113 -51t-143 -14q-183 0 -297 139.5t-134 388.5h-79z" />
<glyph unicode="&#x25fc;" horiz-adv-x="972" d="M0 0v973h973v-973h-973z" />
</font>
</defs>
</svg>
