<?xml version="1.0" standalone="no"?>
<!DOCTYPE svg PUBLIC "-//W3C//DTD SVG 1.1//EN" "http://www.w3.org/Graphics/SVG/1.1/DTD/svg11.dtd" >
<svg xmlns="http://www.w3.org/2000/svg">
<metadata></metadata>
<defs>
<font id="asapregular" horiz-adv-x="655" >
<font-face units-per-em="2048" ascent="1638" descent="-410" />
<missing-glyph horiz-adv-x="491" />
<glyph horiz-adv-x="2048" />
<glyph horiz-adv-x="2048" />
<glyph unicode="&#xd;" horiz-adv-x="681" />
<glyph unicode=" "  horiz-adv-x="491" />
<glyph unicode="&#x09;" horiz-adv-x="491" />
<glyph unicode="&#xa0;" horiz-adv-x="491" />
<glyph unicode="!" horiz-adv-x="602" d="M205 41v135q0 45 82 45h35q82 0 81 -45v-135q0 -45 -81 -45h-35q-82 0 -82 45zM229 459v934q0 45 82 45h41q80 0 80 -45l-55 -934q-4 -45 -64 -45h-22q-61 0 -62 45z" />
<glyph unicode="&#x22;" horiz-adv-x="653" d="M102 1368v25q0 45 82 45h21q82 0 82 -45v-29l-47 -373q-6 -25 -46 -24.5t-47 24.5zM365 1368v25q0 45 81 45h21q82 0 82 -45v-29l-47 -373q-6 -25 -46 -24.5t-46 24.5z" />
<glyph unicode="#" horiz-adv-x="1093" d="M27 463v35q0 61 41 61h186l53 301h-166q-41 0 -41 62v34q0 61 41 62h193l63 342q2 16 9 24q16 20 81 21h9q57 0 57 -31l-68 -356h244l62 342q2 16 8 24q16 20 82 21h10q57 0 57 -31l-63 -356h139q41 0 41 -62v-34q0 -61 -41 -62h-170l-51 -301h155q41 0 41 -61v-35 q0 -61 -41 -62h-188l-63 -360q-6 -25 -22.5 -35t-66.5 -10h-8q-57 0 -57 35l65 370h-241l-66 -360q-4 -16 -8 -25q-14 -20 -80 -20h-8q-57 0 -57 35l65 370h-155q-41 0 -41 62zM408 559h241l53 301h-241z" />
<glyph unicode="$" horiz-adv-x="1015" d="M72 137q0 25 27.5 68t43.5 43q6 0 49.5 -26.5t120 -55.5t164.5 -31v529q-78 31 -111.5 45t-96 51t-93.5 74q-78 98 -78 241.5t102.5 241.5t276.5 117v86q0 33 41 32.5t41 -32.5v-82q102 -2 213 -36t111 -81q0 -23 -26 -66t-38 -43t-45 19q-100 55 -215 59v-477 q94 -33 142.5 -55.5t117.5 -71.5q131 -94 131 -281.5t-104.5 -293t-286.5 -121.5v-103q0 -33 -41 -32.5t-41 32.5v101q-162 4 -283.5 54t-121.5 95zM285 1068q0 -87 49 -136t143 -88v440q-90 -16 -141 -72.5t-51 -143.5zM559 141q92 17 148.5 84.5t56.5 160.5t-53.5 147.5 t-151.5 97.5v-490z" />
<glyph unicode="%" horiz-adv-x="1566" d="M122.5 1113q0.5 333 280.5 333q117 0 199 -75t82 -260t-82 -258t-199 -73q-281 0 -280.5 333zM258.5 1124.5q-0.5 -73.5 6.5 -115.5t42 -79t96 -37q150 0 150 217q0 162 -68 205q-33 20 -81 20t-79.5 -20.5t-45.5 -57.5q-20 -59 -20.5 -132.5zM330 4q0 10 8 21l764 1382 q20 39 82 39h10q49 0 49 -19q0 -4 -8 -20l-764 -1382q-20 -39 -82 -39h-10q-49 0 -49 18zM882.5 322.5q0.5 332.5 280.5 332.5q117 0 199 -74.5t82 -260t-82 -258t-199 -72.5q-281 0 -280.5 332.5zM1018 312.5q0 -52.5 7 -94.5t42 -79t96 -37q150 0 150 217q0 162 -68 205 q-33 20 -81 20.5t-79.5 -20t-45 -57.5t-17.5 -69.5t-4 -85z" />
<glyph unicode="&#x26;" horiz-adv-x="1277" d="M102 434q0 131 78 231.5t180 127.5v8q-92 37 -151 114.5t-59 186.5q0 168 113.5 256t293.5 88t180 -66q0 -18 -12 -59t-33 -41q-2 0 -44 9t-99 9t-109.5 -21.5t-74.5 -57.5q-43 -66 -43 -147t69.5 -158.5t204.5 -77.5h242l24 215q4 45 66 45h20q61 0 62 -45v-215h172 q41 0 41 -62v-24q0 -61 -41 -62h-172v-401q0 -152 110 -152q35 0 59.5 5t28.5 5q18 0 30.5 -37.5t12.5 -58.5q0 -61 -144 -61t-214 88q-145 -88 -334 -88q-168 0 -305 94q-152 108 -152 352zM281 418q0 -104 50 -171t112.5 -89.5t131.5 -22.5q129 0 267 76q-4 37 -4 59v418 h-250q-150 0 -228.5 -61.5t-78.5 -208.5z" />
<glyph unicode="'" horiz-adv-x="374" d="M102 1368v25q0 45 82 45h21q82 0 82 -45v-29l-47 -373q-6 -25 -46 -24.5t-47 24.5z" />
<glyph unicode="(" horiz-adv-x="616" d="M113 585.5q0 309.5 101 573.5t275 424q20 20 42 20.5t42.5 -15t20.5 -36t-19 -45.5q-139 -164 -217.5 -404.5t-78.5 -516t78.5 -516t215.5 -406.5q18 -20 18.5 -38.5t-18 -39t-40 -20.5t-44.5 22q-174 160 -275 424t-101 573.5z" />
<glyph unicode=")" horiz-adv-x="616" d="M18 -382q0 15 15 34q141 164 223 408.5t82 522t-79 518t-216 406.5q-18 20 -18 39t18 39.5t39.5 20.5t44.5 -23q174 -160 275.5 -424t101.5 -573.5t-101.5 -573.5t-275.5 -424q-20 -20 -43 -20t-44.5 17.5t-21.5 32.5z" />
<glyph unicode="*" horiz-adv-x="763" d="M71.5 1214.5q0.5 22.5 11.5 36t24.5 13.5t19.5 -2l203 -66v215q0 41 41 41t41 -41v-215l202 66q6 2 19.5 2t25 -13.5t11.5 -36t-29 -30.5l-203 -66l148 -203q10 -16 10 -28.5t-15.5 -25.5t-32 -13t-28.5 18l-149 207l-150 -207q-16 -18 -30.5 -18t-30 11t-15.5 27.5 t11 28.5l145 203l-201 66q-29 8 -28.5 30.5z" />
<glyph unicode="+" horiz-adv-x="1146" d="M98 457v14q0 70 41 70h367v366q0 41 61 41h15q61 0 61 -41v-366h365q41 0 41 -62v-14q0 -61 -41 -62h-365v-366q0 -41 -61 -41h-15q-61 0 -61 41v366h-367q-23 0 -32 11.5t-9 42.5z" />
<glyph unicode="," horiz-adv-x="405" d="M25 -207q0 12 18 49q70 140 70 314q0 66 82 65h18q82 0 82 -57q0 -166 -75 -284t-135 -118t-60 31z" />
<glyph unicode="-" d="M90 532v21q0 61 41 61h387q41 0 41 -61v-21q0 -61 -41 -61h-387q-41 0 -41 61z" />
<glyph unicode="." horiz-adv-x="405" d="M104 41v135q0 45 82 45h35q82 0 82 -45v-135q0 -45 -82 -45h-35q-82 0 -82 45z" />
<glyph unicode="/" horiz-adv-x="757" d="M-20 -115q0 16 6 31l635 1477q20 47 71 47h8q49 0 50 -41q0 -14 -7 -31l-634 -1477q-20 -47 -68 -47h-8q-53 0 -53 41z" />
<glyph unicode="0" horiz-adv-x="1095" d="M80 716.5q0 360.5 133 545t332.5 184.5t334 -184.5t134.5 -545t-134.5 -544.5t-334 -184t-332.5 184t-133 544.5zM254 717q0 -299 84 -440.5t208 -141.5t209 141.5t85 440.5t-85 440t-209 141t-208 -141t-84 -440z" />
<glyph unicode="1" horiz-adv-x="1095" d="M82 1291.5q0 31.5 37 41.5l475 105q25 0 44 -12.5t19 -30.5v-1248h304q41 0 40 -61v-25q0 -61 -40 -61h-832q-41 0 -41 61v25q0 61 41 61h356v1104l-362 -61q-18 0 -29.5 35t-11.5 66.5z" />
<glyph unicode="2" horiz-adv-x="1095" d="M104 87q0 30 9 38q88 111 317 396.5t289.5 377.5t60.5 188.5t-68.5 153.5t-169 57t-169 -26.5t-107.5 -52t-51 -25.5t-37.5 40t-25.5 62q0 59 130 104.5t238 45.5q201 0 318.5 -93t117.5 -255q0 -102 -37.5 -187.5t-116.5 -190t-315 -392.5l-149 -183h590q41 0 41 -61 v-23q0 -61 -41 -61h-783q-16 0 -28.5 28.5t-12.5 58.5z" />
<glyph unicode="3" horiz-adv-x="1095" d="M92 104q0 29 26.5 66t45.5 37q2 0 108.5 -36t195.5 -36t151.5 22.5t112.5 89t50 171.5q0 147 -78.5 208.5t-228.5 61.5h-67q-41 0 -41 62v22q0 61 41 62h59q141 0 206.5 86t65.5 172t-55 146t-188 60q-145 0 -250 -49q-35 -18 -45 -18q-16 0 -42 41t-26 65q0 43 129 76 t238 33q188 0 300.5 -92t112.5 -271q0 -100 -60 -173.5t-151 -108.5v-8q102 -27 180.5 -127.5t78.5 -231.5t-42 -217t-112 -135q-135 -94 -304 -94t-290 37.5t-121 78.5z" />
<glyph unicode="4" horiz-adv-x="1095" d="M37 440.5q0 24.5 4 28.5l674 940q23 29 69 29h33q61 0 62 -45v-904h137q41 0 41 -61v-25q0 -61 -41 -61h-137v-301q0 -45 -62 -45h-47q-61 0 -61 45v301h-623q-16 0 -32.5 37t-16.5 61.5zM240 489h469v652l-9 4z" />
<glyph unicode="5" horiz-adv-x="1095" d="M96 111q0 29 27 65.5t45 36.5q2 0 102.5 -39t220 -39t212 79t92.5 219t-94.5 212t-274.5 72h-174q-33 0 -45 14t-12 47l34 594q2 61 66 62h545q41 0 41 -62v-24q0 -61 -41 -62h-445l-26 -422h106q182 0 330 -90q76 -45 121 -132t45 -210t-43 -215t-117 -139 q-139 -90 -315.5 -90t-288 40t-111.5 83z" />
<glyph unicode="6" horiz-adv-x="1095" d="M104 506q0 168 56.5 322.5t139.5 262t177 188.5t171 120t114 39t56.5 -41t19.5 -62.5t-17 -27.5q-397 -164 -506 -545q117 68 280 67.5t275.5 -115t112.5 -302t-126 -305t-328.5 -117.5t-313.5 134t-111 382zM276 489q0 -195 79 -273.5t185.5 -78.5t187.5 71t81 205 t-78 201.5t-200.5 67.5t-245.5 -70q-9 -82 -9 -123z" />
<glyph unicode="7" horiz-adv-x="1095" d="M113 1348v24q0 61 41 62h809q12 0 26.5 -37t14.5 -57.5t-5 -32.5l-606 -1278q-16 -33 -82 -33h-24q-88 0 -88 37q0 4 8 24l592 1229h-645q-41 0 -41 62z" />
<glyph unicode="8" horiz-adv-x="1095" d="M104 414q0 150 59.5 231.5t168.5 132.5q-170 100 -170 314q0 168 109.5 261t279.5 93t281.5 -93t111.5 -261q0 -219 -199 -312q117 -53 181.5 -133t64.5 -233q0 -209 -124 -317.5t-319.5 -108.5t-319.5 108.5t-124 317.5zM281 414q0 -133 75.5 -206t190.5 -73t191.5 73 t76.5 206q0 90 -41 139q-23 29 -42 47t-58 36.5t-62.5 28t-73 27t-69.5 25.5q-188 -110 -188 -303zM334 1092q0 -117 82 -174q61 -41 180 -82q176 102 176 256q0 104 -61.5 155t-158.5 51t-157.5 -51t-60.5 -155z" />
<glyph unicode="9" horiz-adv-x="1095" d="M113 1021q0 187 126 305t328.5 118t313 -134t110.5 -382q0 -168 -56 -322.5t-139 -262t-177.5 -188.5t-171 -120t-113.5 -39t-56.5 41t-19.5 62.5t16 27.5q397 164 506 545q-117 -68 -279.5 -68t-275 115t-112.5 302zM287 1021q0 -134 77.5 -201.5t200.5 -67.5t246 69 q8 82 8 123q0 195 -78.5 273.5t-185 78.5t-187.5 -70.5t-81 -204.5z" />
<glyph unicode=":" horiz-adv-x="405" d="M104 41v135q0 45 82 45h35q82 0 82 -45v-135q0 -45 -82 -45h-35q-82 0 -82 45zM104 895v135q0 45 82 45h35q82 0 82 -45v-135q0 -45 -82 -45h-35q-82 0 -82 45z" />
<glyph unicode=";" horiz-adv-x="405" d="M25 -207q0 12 18 49q70 140 70 314q0 66 82 65h18q82 0 82 -57q0 -166 -75 -284t-135 -118t-60 31zM104 895v135q0 45 82 45h35q82 0 82 -45v-135q0 -45 -82 -45h-35q-82 0 -82 45z" />
<glyph unicode="&#x3c;" horiz-adv-x="1146" d="M84 449v34q0 49 51 72l842 356q14 6 31 7q43 0 43 -54v-28q0 -53 -50 -72l-729 -297l729 -299q49 -20 50 -72v-28q0 -53 -43 -54q-16 0 -31 6l-842 357q-51 23 -51 72z" />
<glyph unicode="=" horiz-adv-x="1146" d="M98 281v16q0 61 62 61h827q61 0 62 -61v-16q0 -61 -62 -62h-827q-61 0 -62 62zM98 616v15q0 61 62 61h827q61 0 62 -61v-15q0 -61 -62 -61h-827q-61 0 -62 61z" />
<glyph unicode="&#x3e;" horiz-adv-x="1146" d="M94 66v28q0 49 49 72l729 299l-729 297q-49 18 -49 72v28q0 53 43 53q14 0 31 -6l842 -356q51 -23 51 -72v-35q0 -49 -51 -71l-842 -357q-16 -6 -31 -6q-43 1 -43 54z" />
<glyph unicode="?" horiz-adv-x="911" d="M98 1329q0 49 115 83t238 34q197 0 308 -99.5t111 -244.5q0 -141 -133 -279q-57 -59 -114 -114q-143 -139 -158 -254q-6 -41 -68 -41h-30q-62 0 -62 47q0 150 176 325q70 70 100.5 104t62.5 89t32 102q0 213 -258 213q-78 0 -164 -34.5t-90 -34.5q-14 0 -40 41t-26 63z M279 41v135q0 45 81 45h35q82 0 82 -45v-135q0 -45 -82 -45h-35q-81 0 -81 45z" />
<glyph unicode="@" horiz-adv-x="1994" d="M172 485q0 403 266.5 681t655.5 278q309 0 495.5 -182.5t186.5 -474t-121 -484t-309 -192.5q-92 0 -145.5 49t-57.5 121v14q-100 -184 -277 -184q-98 0 -190 73q-49 37 -78 115t-29 184q0 244 119 397.5t313 153.5q131 0 228 -96q18 57 28 72q12 18 43 18h13q45 0 45 -43 q-68 -631 -68 -680q0 -86 82 -86q115 0 204 169t89 390q0 260 -157.5 418t-413.5 158q-342 0 -576.5 -252t-234.5 -617q0 -291 153.5 -472t403.5 -181q119 0 214 29.5t101 29.5q29 0 29 -47q0 -53 -116 -77.5t-228 -24.5q-297 0 -482.5 205.5t-185.5 537.5zM719 494 q0 -258 180 -258q70 0 141.5 67.5t122.5 220.5q27 274 39 314q-84 70 -188 69q-295 1 -295 -413z" />
<glyph unicode="A" horiz-adv-x="1255" d="M25 31q0 10 6 28l485 1346q10 33 82 33h59q72 0 82 -33l486 -1348q6 -14 6 -26q0 -35 -88 -35h-17q-72 0 -82 33l-120 336h-602l-117 -336q-10 -33 -82 -33h-10q-88 0 -88 35zM379 520h489l-215 610l-26 119l-33 -119z" />
<glyph unicode="B" horiz-adv-x="1214" d="M199 61v1311q0 61 61 62h367q223 0 340.5 -98.5t117.5 -264.5q0 -102 -67.5 -194.5t-157.5 -116.5v-8q31 -4 90.5 -37t97 -67t68.5 -97.5t31 -138.5q0 -412 -535 -412h-352q-61 0 -61 61zM379 156h299q135 0 209 70.5t74 189.5t-81 181t-237 62h-264v-503zM379 815h237 q123 0 203 69.5t80 177t-69.5 162t-221.5 54.5h-229v-463z" />
<glyph unicode="C" horiz-adv-x="1267" d="M117 717q0 729 663 729q147 0 269 -42t122 -85q0 -29 -25.5 -74t-43.5 -45q-4 0 -44 22.5t-114 45t-160 22.5q-248 0 -364.5 -137t-116.5 -435t116 -436.5t357 -138.5q92 0 174 26t127 51.5t51 25.5q18 0 45 -45t27 -66q0 -47 -128 -97t-296 -50q-338 0 -498.5 177 t-160.5 552z" />
<glyph unicode="D" horiz-adv-x="1423" d="M199 61v1311q0 61 61 62h414q287 0 460 -171t173 -547t-173 -546t-460 -170h-414q-61 0 -61 61zM379 156h280q207 0 334 135t127 425t-127 426t-334 136h-280v-1122z" />
<glyph unicode="E" horiz-adv-x="1118" d="M199 61v1311q0 61 61 62h715q41 0 41 -62v-33q0 -61 -41 -61h-596v-467h534q41 0 41 -61v-33q0 -61 -41 -62h-534v-499h598q41 0 41 -62v-33q0 -61 -41 -61h-717q-61 0 -61 61z" />
<glyph unicode="F" horiz-adv-x="1030" d="M199 41v1331q0 61 61 62h645q41 0 41 -62v-33q0 -61 -41 -61h-526v-467h489q41 0 41 -61v-33q0 -61 -41 -62h-489v-614q0 -45 -82 -45h-16q-82 0 -82 45z" />
<glyph unicode="G" horiz-adv-x="1376" d="M117 705q0 741 663 741q147 0 269 -42t122 -85q0 -29 -25.5 -74t-43.5 -45q-4 0 -44 22.5t-114 45t-160 22.5q-260 0 -370.5 -143t-110.5 -424q0 -580 459 -580q162 0 264 27v414h-240q-41 0 -41 61v33q0 61 41 61h359q61 0 61 -61v-543q0 -147 -456 -147 q-633 0 -633 717z" />
<glyph unicode="H" horiz-adv-x="1501" d="M199 41v1352q0 45 82 45h16q82 0 82 -45v-580h741v580q0 45 82 45h17q82 0 81 -45v-1352q0 -45 -81 -45h-17q-82 0 -82 45v616h-741v-616q0 -45 -82 -45h-16q-82 0 -82 45z" />
<glyph unicode="I" horiz-adv-x="577" d="M199 41v1352q0 45 82 45h16q82 0 82 -45v-1352q0 -45 -82 -45h-16q-82 0 -82 45z" />
<glyph unicode="J" horiz-adv-x="823" d="M12 53q0 20 12.5 66.5t32.5 46.5q2 0 46 -9.5t83 -9.5q152 0 219.5 59.5t67.5 192.5v994q0 45 82 45h16q82 0 82 -45v-973q0 -432 -434 -432h-6q-201 0 -201 65z" />
<glyph unicode="K" horiz-adv-x="1179" d="M199 41v1352q0 45 82 45h16q82 0 82 -45v-627h8l504 643q23 29 110 29h21q72 0 72 -27q0 -18 -21 -41l-512 -639l621 -674q18 -20 18 -32q0 -29 -90 -29h-25q-88 0 -112 27l-586 659h-8v-641q0 -45 -82 -45h-16q-82 0 -82 45z" />
<glyph unicode="L" horiz-adv-x="991" d="M199 61v1332q0 45 82 45h16q82 0 82 -45v-1237h563q41 0 41 -62v-33q0 -61 -41 -61h-682q-61 0 -61 61z" />
<glyph unicode="M" horiz-adv-x="1726" d="M184 41v1352q0 45 82 45h74q66 0 86 -37l387 -672l53 -129l54 117l387 684q20 37 86 37h67q82 0 82 -45v-1352q0 -45 -82 -45h-14q-82 0 -82 45v1102l-412 -717q-14 -27 -45 -27h-82q-31 0 -45 27l-418 729v-1114q0 -45 -81 -45h-15q-82 0 -82 45z" />
<glyph unicode="N" horiz-adv-x="1472" d="M184 41v1352q0 45 82 45h43q57 0 86 -39l654 -987l61 -115v1096q0 45 82 45h14q82 0 82 -45v-1352q0 -45 -82 -45h-41q-53 0 -71 29l-676 1019l-56 105v-1108q0 -45 -81 -45h-15q-82 0 -82 45z" />
<glyph unicode="O" horiz-adv-x="1497" d="M117 720.5q0 358.5 160.5 542t470 183.5t471 -183.5t161.5 -542t-161.5 -545.5t-470 -187t-470 187t-161.5 545.5zM303 719.5q0 -281.5 113.5 -429t331 -147.5t332 147.5t114.5 429t-114.5 426t-332 144.5t-331 -144.5t-113.5 -426z" />
<glyph unicode="P" horiz-adv-x="1167" d="M174 41v1331q0 61 62 62h415q158 0 291 -70q76 -39 121 -124t45 -199.5t-36 -195.5t-86 -124t-116 -70q-100 -41 -198 -41h-318v-569q0 -45 -82 -45h-16q-82 0 -82 45zM354 766h320q78 0 153 49q41 27 68 83t27 134q0 137 -82 191.5t-195 54.5h-291v-512z" />
<glyph unicode="Q" horiz-adv-x="1497" d="M117 711q0 360 161.5 547.5t470 187.5t470 -188.5t161.5 -546.5q0 -291 -105.5 -469.5t-305.5 -231.5v-8l403 -127q29 -10 29 -34.5t-27.5 -84t-58.5 -59.5q-16 0 -364.5 137t-446.5 178q-387 154 -387 699zM303 711.5q0 -279.5 116 -427t330 -147.5t329.5 148.5 t115.5 426t-116.5 428t-329.5 150.5t-329 -149.5t-116 -429z" />
<glyph unicode="R" horiz-adv-x="1249" d="M199 41v1331q0 61 61 62h344q246 0 370 -87t124 -276q0 -252 -236 -346v-8q59 -20 99 -79.5t86 -176.5l159 -404q6 -18 6 -28q0 -33 -86 -33h-20q-70 0 -82 33l-156 401q-45 117 -112.5 159t-192.5 42h-184v-590q0 -45 -82 -45h-16q-82 0 -82 45zM379 786h270 q109 0 185.5 75t76.5 186.5t-73.5 171t-202.5 59.5h-256v-492z" />
<glyph unicode="S" horiz-adv-x="1024" d="M76 137q0 25 27.5 68t43.5 43q6 0 51.5 -25.5t127.5 -52.5t187 -27t180 68t75 172t-68.5 165.5t-166 97.5t-195.5 77t-167 127t-69 219q0 170 125 273.5t330 103.5q100 0 215 -37t115 -88q0 -23 -25.5 -66t-40.5 -43q-8 0 -43 21q-104 57 -225 57t-192.5 -58t-71.5 -171 t133 -176q57 -27 129 -52.5t142.5 -59.5t129 -79t95 -122.5t36.5 -180.5q0 -188 -122.5 -295.5t-311 -107.5t-316.5 51t-128 98z" />
<glyph unicode="T" horiz-adv-x="1124" d="M41 1339v33q0 61 41 62h960q41 0 41 -62v-33q0 -61 -41 -61h-387v-1237q0 -45 -82 -45h-16q-82 0 -82 45v1237h-393q-41 0 -41 61z" />
<glyph unicode="U" horiz-adv-x="1458" d="M170 459v934q0 45 82 45h16q82 0 82 -45v-940q0 -135 107.5 -222.5t271.5 -87.5t271.5 87t107.5 223v940q0 45 82 45h16q82 0 82 -45v-934q0 -223 -145.5 -347t-414.5 -124t-413.5 124t-144.5 347z" />
<glyph unicode="V" horiz-adv-x="1263" d="M43 1403q0 35 88 35h19q72 0 81 -33l379 -1094l23 -106l26 108l379 1092q10 33 82 33h13q88 0 88 -35q0 -10 -7 -29l-469 -1345q-10 -33 -81 -33h-64q-72 0 -82 33l-469 1347q-6 17 -6 27z" />
<glyph unicode="W" horiz-adv-x="1806" d="M31 1403q0 35 88 35h20q74 0 82 -33l260 -1008q14 -57 25.5 -122.5t11.5 -67.5l297 1196q8 35 80 35h33q72 0 80 -35l254 -1008l34 -188l297 1198q8 33 82 33h13q88 0 88 -35q0 -4 -7 -29l-354 -1345q-8 -33 -82 -33h-84q-74 0 -82 33l-223 833l-43 266l-43 -266 l-223 -833q-8 -33 -82 -33h-84q-74 0 -82 33l-350 1345q-6 25 -6 29z" />
<glyph unicode="X" horiz-adv-x="1251" d="M41 31q0 14 16 37l459 680l-410 618q-16 23 -16 37q0 35 94 35h29q68 0 88 -31l328 -494l338 496q18 29 88 29h12q94 0 94 -35q0 -8 -16 -37l-410 -608l461 -690q16 -23 16 -37q0 -35 -94 -35h-33q-68 0 -88 31l-376 563l-381 -565q-18 -29 -88 -29h-17q-94 0 -94 35z " />
<glyph unicode="Y" horiz-adv-x="1144" d="M37 1403q0 35 94 35h23q68 0 88 -31l336 -504l344 506q18 29 102 29t84 -35q0 -8 -16 -37l-430 -637v-688q0 -45 -82 -45h-17q-82 0 -82 45v694l-428 631q-16 23 -16 37z" />
<glyph unicode="Z" horiz-adv-x="1261" d="M78 100.5q0 22.5 6 32.5l840 1145h-738q-41 0 -41 70v16q0 70 41 70h938q12 0 28.5 -39t16.5 -61.5t-6 -33.5l-839 -1144h800q41 0 41 -70v-16q0 -70 -41 -70h-997q-14 0 -31.5 39t-17.5 61.5z" />
<glyph unicode="[" horiz-adv-x="595" d="M184 -221v1732q0 61 62 62h248q41 0 41 -60v-10q0 -59 -41 -59h-158v-1600h158q41 0 41 -59v-8q0 -59 -41 -60h-248q-62 1 -62 62z" />
<glyph unicode="\" horiz-adv-x="739" d="M10 1397q0 41 49 41h9q51 0 71 -47l586 -1360q6 -14 6 -31q0 -41 -53 -41h-8q-47 0 -68 47l-586 1360q-6 15 -6 31z" />
<glyph unicode="]" horiz-adv-x="595" d="M61 -215q0 59 41 59h158v1600h-158q-41 0 -41 59v10q0 59 41 60h248q61 0 62 -62v-1732q0 -61 -62 -62h-248q-41 0 -41 60v8z" />
<glyph unicode="^" horiz-adv-x="921" d="M109 698q0 14 6 29l256 633q14 41 69 41h41q51 0 70 -41l256 -633q6 -14 6 -29q0 -43 -55 -43h-8q-53 0 -72 47l-217 535l-219 -535q-20 -47 -70 -47h-8q-55 0 -55 43z" />
<glyph unicode="_" horiz-adv-x="1093" d="M-43 -225q0 41 41 41h1098q41 0 41 -41v-17q0 -41 -41 -41h-1098q-41 0 -41 41v17z" />
<glyph unicode="`" d="M152 1513q0 27 97 27t128 -53q119 -207 119 -227.5t-59.5 -20.5t-92.5 37q-180 207 -186 218t-6 19z" />
<glyph unicode="a" horiz-adv-x="1116" d="M100 305q0 162 112 243t251 98.5t317 21.5v96q0 172 -225 172q-147 0 -272 -64q-43 -23 -47 -22q-20 0 -46 41t-26 61q0 43 119.5 87t287.5 44t274.5 -85t106.5 -236v-459q0 -123 11 -178q14 -76 14 -80q0 -25 -39 -36t-60.5 -11t-29.5 4t-15.5 14.5t-11.5 19.5t-8 25.5 t-7 25.5t-6 28.5t-5 25.5q-138 -153 -341 -153h-3q-158 0 -254.5 77.5t-96.5 239.5zM285 305q0 -168 174 -168q100 0 173 37t148 105v241q-256 0 -329 -28q-39 -14 -82 -37q-84 -44 -84 -150z" />
<glyph unicode="b" horiz-adv-x="1165" d="M174 41v1454q0 45 82 45h8q82 0 82 -45v-516q135 104 307 104t287 -142t115 -394v-19q0 -238 -107.5 -389t-288 -151t-327.5 153l-33 -121q-10 -24 -52 -24h-3h-8q-62 0 -62 45zM346 279q129 -141 264 -142q264 0 264 414q0 182 -68.5 280.5t-199.5 100.5h-12 q-137 0 -248 -92v-561z" />
<glyph unicode="c" horiz-adv-x="993" d="M106 541q0 154 42 264t114 170q134 108 326 108h4q119 0 213 -28.5t94 -65.5q0 -27 -23.5 -68.5t-41.5 -41.5q-2 0 -7.5 2t-8.5 3t-7 3q-111 49 -223 49q-297 0 -297 -391q0 -217 72.5 -313.5t244.5 -96.5q125 0 232 53q6 2 13 5.5l9 4.5q20 0 45 -40.5t25 -65.5 q0 -37 -96.5 -70.5t-225.5 -33.5q-254 0 -379 131t-125 422z" />
<glyph unicode="d" horiz-adv-x="1157" d="M106 528v19q0 252 115 394t287 142t307 -104v516q0 45 82 45h8q82 0 82 -45v-1192q0 -123 10 -178q14 -76 15 -80q0 -25 -39 -36t-60.5 -11t-30 4t-15.5 14.5t-11 19.5t-8 25.5t-7 25.5t-6.5 28.5t-5.5 25.5q-147 -154 -326 -154l-1 1q-180 0 -288 151.5t-108 388.5z M287 551q0 -414 266 -414q133 0 262 142v561q-111 92 -248 92h-12q-131 -2 -199.5 -100.5t-68.5 -280.5z" />
<glyph unicode="e" horiz-adv-x="1103" d="M113 527.5q0 273.5 120.5 414.5t344.5 141q434 0 434 -534q0 -18 -24.5 -51t-43.5 -33h-647q12 -170 88 -250t227 -80q139 0 256 66q39 20 43 20q20 0 46 -41t26 -61q0 -41 -111.5 -86t-257.5 -45q-256 0 -378.5 133t-122.5 406.5zM297 612h532q0 324 -245 324 q-264 0 -287 -324z" />
<glyph unicode="f" horiz-adv-x="665" d="M98 985v25q0 61 41 61h82v195q0 176 94 233q80 49 170 49q150 0 150 -61q0 -20 -12.5 -58t-30.5 -38q-4 0 -28.5 5t-68.5 5t-73 -30t-29 -122v-178h178q41 0 41 -61v-25q0 -61 -41 -61h-178v-883q0 -45 -82 -45h-8q-82 0 -82 45v883h-82q-41 0 -41 61z" />
<glyph unicode="g" horiz-adv-x="1118" d="M70 -166q0 168 231 250q-131 55 -131 171t156 169q-90 43 -138.5 124t-48.5 181q0 154 107.5 254t302.5 100q74 0 135 -12h352q41 0 41 -61v-25q0 -61 -41 -61h-143q68 -82 68 -195q0 -152 -109 -252t-303 -100h-21q-176 -8 -176 -86q0 -43 72 -64.5t173 -34t202.5 -35 t173 -91t71.5 -179.5q0 -139 -136 -230t-366.5 -91t-351 60.5t-120.5 207.5zM248 -147q0 -139 307 -140q137 0 222 47t85 117q0 55 -47 82q-78 43 -278 70q-53 8 -84 14q-80 -31 -142.5 -80t-62.5 -110zM319 730q0 -206 230.5 -206t230.5 206t-230.5 206t-230.5 -206z" />
<glyph unicode="h" horiz-adv-x="1157" d="M188 41v1454q0 45 82 45h9q82 0 81 -45v-553q141 141 314 141q117 0 211 -59q51 -35 82.5 -104.5t31.5 -167.5v-711q0 -45 -81 -45h-9q-82 0 -82 45v694q0 92 -53 145.5t-138 53.5t-149.5 -36t-95.5 -71l-31 -36v-750q0 -45 -81 -45h-9q-82 0 -82 45z" />
<glyph unicode="i" horiz-adv-x="542" d="M178 1374v121q0 45 82 45h25q82 0 82 -45v-121q0 -45 -82 -45h-25q-82 0 -82 45zM186 41v989q0 45 82 45h8q82 0 82 -45v-989q0 -45 -82 -45h-8q-82 0 -82 45z" />
<glyph unicode="j" horiz-adv-x="565" d="M-35 -373q0 20 12.5 58.5t30.5 38.5q4 0 28.5 -5.5t59.5 -5.5q111 0 111 152v1165q0 45 82 45h8q82 0 82 -45v-1182q0 -158 -81 -220t-183 -62q-150 0 -150 61zM199 1374v121q0 45 82 45h24q82 0 82 -45v-121q0 -45 -82 -45h-24q-82 0 -82 45z" />
<glyph unicode="k" horiz-adv-x="1067" d="M193 41v1454q0 45 81 45h9q82 0 82 -45v-915h8l391 467q22 28 102 28h6h9q71 0 71 -25q0 -19 -20 -42l-381 -451l422 -500q18 -20 18 -32q0 -29 -90 -29h-8q-88 0 -111 27l-409 485h-8v-467q0 -45 -82 -45h-9q-81 0 -81 45z" />
<glyph unicode="l" horiz-adv-x="608" d="M168 270v1225q0 45 82 45h8q82 0 82 -45v-1208q0 -152 111 -152q35 0 59.5 5t28.5 5q18 0 30.5 -37.5t12.5 -58.5q0 -61 -150 -61q-102 0 -183 62t-81 220z" />
<glyph unicode="m" horiz-adv-x="1736" d="M150 1018q0 25 38.5 36t60 11t30 -4t15.5 -13.5t11 -18.5t8 -24.5t7.5 -24.5t6.5 -26.5t5 -23.5q132 153 309 153h2q223 0 293 -170q143 170 326 170q117 0 208 -59q51 -35 82 -104.5t31 -167.5v-711q0 -45 -82 -45h-8q-82 0 -82 45v694q0 92 -50 145.5t-147 53.5 q-127 0 -251 -141q2 -14 2 -43v-709q0 -45 -82 -45h-9q-82 0 -81 45v694q0 92 -50.5 145.5t-131.5 53.5t-143 -35t-91 -72l-31 -34v-752q0 -45 -82 -45h-8q-82 0 -82 45v719q0 125 -10 178q-14 74 -14 80z" />
<glyph unicode="n" horiz-adv-x="1140" d="M152 1018q0 25 38.5 36t60 11t30 -4t15.5 -13.5t11 -18.5t8 -24.5t7.5 -24.5t6.5 -26.5t5 -23.5q137 154 305 154h1q169 0 258 -88.5t89 -243.5v-711q0 -45 -82 -45h-8q-82 0 -82 45v694q0 94 -54 146.5t-155 52.5q-147 0 -258 -143v-750q0 -45 -82 -45h-8q-82 0 -82 45 v719q0 125 -10 178q-14 74 -14 80z" />
<glyph unicode="o" horiz-adv-x="1165" d="M113 531.5q0 265.5 122.5 408.5t350 143t347.5 -142t120 -409.5t-118 -405.5t-348.5 -138t-352 139t-121.5 404.5zM293 535.5q0 -205.5 69.5 -303t219 -97.5t221 97.5t71.5 302t-71.5 303t-221 98.5t-219 -97.5t-69.5 -303z" />
<glyph unicode="p" horiz-adv-x="1173" d="M152 1018q0 25 38.5 36t60 11t30 -4t15.5 -13.5t11 -18.5t8 -24.5t7.5 -24.5t6.5 -26.5t5 -23.5q147 154 326 154h2q180 -1 287.5 -152.5t107.5 -388.5v-19q0 -252 -115 -394t-287 -142t-307 104v-473q0 -45 -82 -45h-8q-82 0 -82 45v1141q0 125 -10 178q-14 74 -14 80z M348 231q111 -92 248 -92h12q131 2 200 100.5t69 289t-66 298t-200 107.5t-263 -141v-562z" />
<glyph unicode="q" horiz-adv-x="1159" d="M106 524v19q0 238 108 389t288 151t327 -153l33 121q10 24 53 24h3h8q61 0 61 -45v-1411q0 -45 -82 -45h-8q-82 0 -82 45v473q-135 -104 -307 -104t-287 142t-115 394zM287 520q0 -182 68.5 -280.5t199.5 -100.5h12q137 0 248 92v562q-129 141 -262 141q-266 0 -266 -414 z" />
<glyph unicode="r" horiz-adv-x="749" d="M160 1018q0 25 39 36t60.5 11t29.5 -4t15 -13.5t11 -18.5t8.5 -24.5t7.5 -24.5t6 -26.5t5 -23.5q108 153 236 153h2q57 0 87.5 -22.5t30.5 -57t-12 -72.5t-29 -38q-8 0 -39.5 11t-75.5 11t-91.5 -31.5t-69.5 -62.5l-25 -30v-750q0 -45 -82 -45h-8q-82 0 -82 45v719 q0 125 -10 178q-14 74 -14 80z" />
<glyph unicode="s" horiz-adv-x="845" d="M72 111q0 20 25.5 61t45.5 41q2 0 33 -19.5t88.5 -39t138 -19.5t133 46t52.5 125t-46 123t-183.5 83t-199 99.5t-61.5 183.5t94.5 205.5t245.5 82.5q104 0 186.5 -26.5t82.5 -59.5q0 -27 -24 -68.5t-42 -41.5q-2 0 -27 12q-70 37 -156.5 37t-135 -36t-48.5 -93t36 -90 t122 -60q193 -59 261.5 -129.5t68.5 -213t-101.5 -234.5t-243 -92t-243.5 42t-102 81z" />
<glyph unicode="t" horiz-adv-x="700" d="M76 985v25q0 61 41 61h102l25 215q4 45 65 45h21q61 0 61 -45v-215h172q41 0 41 -61v-25q0 -61 -41 -61h-172v-637q0 -152 111 -152q35 0 59.5 5t28.5 5q18 0 30.5 -37.5t12.5 -58.5q0 -61 -150 -61q-102 0 -183 62t-81 220v654h-102q-41 0 -41 61z" />
<glyph unicode="u" horiz-adv-x="1140" d="M154 319v711q0 45 82 45h8q82 0 82 -45v-694q0 -94 54 -146.5t155 -52.5q147 0 258 144v749q0 45 81 45h9q82 0 82 -45v-727q0 -123 10 -178q14 -76 14 -80q0 -25 -39 -36t-60.5 -11t-29.5 4t-15 14.5t-11.5 19.5t-8.5 25.5t-7 25.5t-6 28.5t-5 25.5q-137 -154 -305 -154 l-1 1q-169 0 -258 87.5t-89 243.5z" />
<glyph unicode="v" horiz-adv-x="993" d="M43 1040q0 35 88 35h16q72 0 82 -33l275 -829l274 829q10 33 91 33t81 -35q0 -10 -6 -28l-330 -983q-10 -33 -82 -33h-71q-72 0 -82 33l-330 985q-6 18 -6 26z" />
<glyph unicode="w" horiz-adv-x="1529" d="M61 1040q0 35 89 35h18q74 0 82 -33l215 -817l213 815q8 35 80 35h22q70 0 80 -35l215 -815l213 817q8 33 92 33t84 -35q0 -10 -6 -28l-274 -983q-8 -33 -82 -33h-68q-72 0 -80 33l-188 745l-193 -745q-8 -33 -81 -33h-68q-74 0 -82 33l-274 985q-7 18 -7 26z" />
<glyph unicode="x" horiz-adv-x="993" d="M41 31q0 14 16 37l332 481l-307 455q-16 23 -16 36q0 35 94 35h22q68 0 88 -31l234 -339l235 342q17 28 83 28h5h9q94 0 94 -35q0 -14 -17 -36l-309 -451l332 -485q16 -23 16 -37q0 -35 -94 -35h-22q-68 0 -88 31l-256 374l-261 -376q-20 -29 -88 -29h-8q-94 0 -94 35z " />
<glyph unicode="y" horiz-adv-x="985" d="M37 1040q0 35 88 35h16q68 0 82 -33l279 -739l272 739q10 33 91 33t81 -35q0 -10 -6 -28l-526 -1395q-16 -43 -97 -43h-30q-68 0 -68 33q0 6 182 450l-358 957q-6 18 -6 26z" />
<glyph unicode="z" horiz-adv-x="1001" d="M76 95.5q0 21.5 6 31.5l600 797h-524q-41 0 -41 61v25q0 61 41 61h719q14 0 27.5 -38t13.5 -59.5t-5 -29.5l-598 -797h564q41 0 41 -61v-25q0 -61 -41 -61h-758q-12 0 -28.5 37t-16.5 58.5z" />
<glyph unicode="{" horiz-adv-x="561" d="M41 631v28q0 47 57.5 73t78 86.5t20.5 174.5v342q0 129 51 183.5t108 54.5h103q41 0 41 -60v-8q0 -59 -41 -59h-45q-41 0 -55.5 -30t-14.5 -95v-360q0 -205 -160 -318q25 -12 56.5 -41t67.5 -103.5t36 -168.5v-359q0 -66 14.5 -96.5t55.5 -30.5h45q41 0 41 -59v-8 q0 -59 -41 -60h-103q-57 0 -108 53.5t-51 184.5v342q0 113 -20.5 174t-78 87t-57.5 73z" />
<glyph unicode="|" horiz-adv-x="512" d="M197 -242v1774q0 45 49 45h20q49 0 49 -45v-1774q0 -45 -49 -45h-20q-49 0 -49 45z" />
<glyph unicode="}" horiz-adv-x="561" d="M61 -215q0 59 41 59h45q41 0 55.5 31t14.5 96v359q0 94 36 168.5t67.5 103.5t56.5 41q-160 113 -160 318v360q0 66 -14.5 95.5t-55.5 29.5h-45q-41 0 -41 59v8q0 59 41 60h103q57 0 108.5 -54.5t51.5 -183.5v-342q0 -115 20.5 -175t77.5 -85.5t57 -73.5v-28 q0 -47 -57 -73t-77.5 -87t-20.5 -174v-342q0 -131 -51.5 -184.5t-108.5 -53.5h-103q-41 0 -41 60v8z" />
<glyph unicode="~" horiz-adv-x="1120" d="M162 539q0 35 82 70.5t171 35.5t199.5 -26.5t149.5 -26.5t82 11t59.5 11t34.5 -18t18 -47q0 -37 -81.5 -73t-172 -36t-200 27t-148.5 27t-82 -11.5t-63.5 -11.5t-34.5 26.5t-14 41.5z" />
<glyph unicode="&#xa1;" horiz-adv-x="602" d="M168 -322l55 934q5 45 64 45h22q61 0 62 -45v-934q0 -45 -82 -45h-41q-80 0 -80 45zM197 895v135q0 45 82 45h34q82 0 82 -45v-135q0 -45 -82 -45h-34q-82 0 -82 45z" />
<glyph unicode="&#xa2;" horiz-adv-x="995" d="M113 541q0 145 36.5 252.5t100.5 164.5q123 115 301 123v80q0 33 41 33t41 -33v-80q102 -4 179 -31.5t77 -60.5q0 -27 -23.5 -68.5t-42.5 -41.5q-2 0 -26 10q-82 39 -164 45v-799q98 8 186 49q29 12 33 13q20 0 45 -40t25 -65q0 -35 -86 -67.5t-203 -36.5v-109 q0 -33 -41 -33t-41 33v111q-221 12 -329.5 144.5t-108.5 406.5zM295 545q0 -201 59.5 -297t196.5 -111v797q-256 -24 -256 -389z" />
<glyph unicode="&#xa3;" horiz-adv-x="1005" d="M68 61v33q0 47 88 82q33 14 60.5 52t27.5 98v368h-113q-41 0 -41 62v24q0 61 41 62h113v178q0 426 420 426q207 0 206 -66q0 -18 -12 -59t-33 -41q-2 0 -46 9t-83 9q-147 0 -213.5 -64.5t-66.5 -203.5v-188h301q41 0 41 -62v-24q0 -61 -41 -62h-301v-184q0 -254 -80 -334 q-14 -14 -37 -29h573q41 0 41 -61v-25q0 -61 -41 -61h-763q-41 0 -41 61z" />
<glyph unicode="&#xa4;" horiz-adv-x="1093" d="M174 351.5q0 21.5 23 43.5l49 49q-70 92 -70 214t70 216l-49 48q-20 20 -20.5 41.5t16 42t39 20.5t42.5 -25l50 -49q98 72 214.5 72t213.5 -70l49 50q20 20 39.5 20t41 -19.5t21.5 -40t-22 -42.5l-50 -50q72 -94 72 -213.5t-72 -214.5l50 -49q23 -23 22.5 -42t-20 -39.5 t-41 -20.5t-41.5 22l-49 50q-96 -68 -214 -68t-212 68l-52 -52q-20 -20 -41.5 -20t-40 18.5t-18.5 40zM301 659.5q0 -98.5 69.5 -168t168 -69.5t169 69.5t70.5 168t-70.5 169t-169 70.5t-168 -70.5t-69.5 -169z" />
<glyph unicode="&#xa5;" horiz-adv-x="1144" d="M37 1403q0 35 94 35h23q68 0 88 -31l336 -504l344 506q18 29 102 29t84 -35q0 -8 -16 -37l-338 -500h254q41 0 41 -61v-17q0 -61 -41 -61h-346v-197h346q41 0 41 -61v-16q0 -61 -41 -62h-346v-350q0 -45 -82 -45h-17q-82 0 -82 45v350h-342q-41 0 -41 62v16q0 61 41 61 h342v197h-342q-41 0 -41 61v17q0 61 41 61h252l-338 500q-16 23 -16 37z" />
<glyph unicode="&#xa6;" horiz-adv-x="512" d="M197 -242v660q0 45 49 45h20q49 0 49 -45v-660q0 -45 -49 -45h-20q-49 0 -49 45zM197 870v662q0 45 49 45h20q49 0 49 -45v-662q0 -45 -49 -45h-20q-49 0 -49 45z" />
<glyph unicode="&#xa7;" horiz-adv-x="878" d="M102 735q0 141 109 236q-78 72 -78 200.5t96.5 201.5t216 73t201.5 -26.5t82 -59.5q0 -27 -23.5 -69t-41.5 -42q-2 0 -25 13q-72 37 -159 36.5t-129 -34t-42 -90t48.5 -89t117 -53t137 -48.5t116.5 -98.5t48 -183.5q0 -150 -112 -237q82 -68 81.5 -199t-95.5 -204.5 t-215 -73.5t-201.5 26.5t-81.5 59.5q0 27 23.5 68.5t41.5 41.5q2 0 25 -12q72 -37 157.5 -37t128.5 35t43 86t-34.5 83t-87 46t-113 39t-112.5 54.5t-87 95t-35 161.5zM276 735q0 -90 66 -129q51 -33 145 -61q115 26 115 157q0 57 -33.5 96.5t-70.5 55.5t-107 37 q-115 -33 -115 -156z" />
<glyph unicode="&#xa8;" d="M96 1288v105q0 45 82 45h8q82 0 82 -45v-105q0 -45 -82 -45h-8q-82 0 -82 45zM391 1288v105q0 45 82 45h8q82 0 82 -45v-105q0 -45 -82 -45h-8q-82 0 -82 45z" />
<glyph unicode="&#xa9;" horiz-adv-x="1513" d="M20 725q0 305 214.5 517t521.5 212t522 -212t215 -517t-216 -520t-521 -215t-520.5 215t-215.5 520zM119 726q0 -263 187.5 -450.5t450.5 -187.5t450.5 187.5t187.5 450.5t-187.5 446.5t-451.5 183.5t-450.5 -183.5t-186.5 -446.5zM395 715q0 436 398 436 q88 0 160.5 -24.5t72.5 -51.5q0 -16 -15.5 -43.5t-27.5 -27.5q-2 0 -25 14q-68 41 -163 41q-147 0 -218 -83t-71 -260t69.5 -260t212.5 -83q100 0 181 45q27 16 30 16q12 0 27.5 -26.5t15.5 -38.5q0 -27 -76.5 -57.5t-177.5 -30.5q-201 0 -297 106.5t-96 327.5z" />
<glyph unicode="&#xaa;" horiz-adv-x="653" d="M92 1042.5q0 61.5 21.5 97.5t51.5 54t81 29q80 16 184 16v49q0 84 -113 84q-74 0 -114.5 -20.5t-42.5 -20.5q-10 0 -23.5 19.5t-13.5 29.5q0 20 59.5 43t142.5 23t136 -42t53 -118v-227q0 -66 12 -127q0 -23 -55 -23q-25 0 -35 72q-70 -78 -159 -78t-137 39t-48 100.5z M184 1061q0 -82 85 -82t161 68v120q-184 0 -225 -45q-21 -24 -21 -61z" />
<glyph unicode="&#xab;" horiz-adv-x="964" d="M90 528.5q0 24.5 27 57.5l266 319q23 25 44.5 25t47 -20.5t25.5 -42t-17 -44.5l-227 -295l227 -297q16 -23 16.5 -41t-24 -41.5t-47 -23.5t-45.5 27l-266 319q-27 33 -27 57.5zM442 528.5q0 24.5 27 57.5l266 319q23 25 44.5 25t47 -20.5t25.5 -42t-16 -44.5l-228 -295 l228 -297q16 -23 16 -41t-24.5 -41.5t-47 -23.5t-45.5 27l-266 319q-27 33 -27 57.5z" />
<glyph unicode="&#xac;" horiz-adv-x="1146" d="M78 604v27q0 61 41 61h889q61 0 61 -61v-428q0 -45 -61 -45h-27q-61 0 -61 45v340h-801q-41 0 -41 61z" />
<glyph unicode="&#xad;" d="M90 532v21q0 61 41 61h387q41 0 41 -61v-21q0 -61 -41 -61h-387q-41 0 -41 61z" />
<glyph unicode="&#xae;" horiz-adv-x="1513" d="M20 725q0 305 214.5 517t521.5 212t522 -212t215 -517t-216 -520t-521 -215t-520.5 215t-215.5 520zM119 726q0 -263 187.5 -450.5t450.5 -187.5t450.5 187.5t187.5 450.5t-187.5 446.5t-451.5 183.5t-450.5 -183.5t-186.5 -446.5zM510 324v784q0 37 37 37h203 q291 0 290 -213q0 -150 -139 -205v-4q35 -12 57.5 -47t51.5 -105l94 -237q4 -16 4 -19q0 -18 -51 -18h-13q-39 0 -47 18l-92 238q-27 70 -66.5 94.5t-113.5 24.5h-109v-348q0 -27 -49 -27h-8q-49 0 -49 27zM616 764h160q63 0 108.5 44t45.5 103q0 141 -162 142h-152v-289z " />
<glyph unicode="&#xaf;" d="M55 1315v20q0 61 41 62h457q41 0 41 -62v-20q0 -61 -41 -62h-457q-41 0 -41 62z" />
<glyph unicode="&#xb0;" horiz-adv-x="706" d="M78 1173.5q0 112.5 79 192.5t191.5 80t192.5 -80t80 -192.5t-80 -191.5t-192.5 -79t-191.5 79t-79 191.5zM178 1173.5q0 -73.5 50.5 -126t121 -52.5t120.5 52.5t50 126t-51 127t-120.5 53.5t-120 -53.5t-50.5 -127z" />
<glyph unicode="&#xb1;" horiz-adv-x="1146" d="M78 61v27q0 61 61 62h869q61 0 61 -62v-27q0 -61 -61 -61h-869q-61 0 -61 61zM98 731v14q0 61 62 62h346v346q0 61 61 61h15q61 0 61 -61v-346h344q61 0 62 -62v-14q0 -61 -62 -61h-344v-344q0 -61 -61 -62h-15q-61 1 -61 62v344h-346q-61 0 -62 61z" />
<glyph unicode="&#xb2;" d="M72 662q0 12 4 20q319 399 352 451.5t33 105.5t-39 86t-97.5 33t-97.5 -15.5t-61.5 -30t-29.5 -14.5t-22.5 22.5t-15.5 37.5q0 35 75 60.5t138 25.5q117 0 184.5 -53.5t67.5 -140.5t-43 -156.5t-227 -294.5l-86 -105h340q23 0 22 -35v-14q0 -35 -22 -35h-451 q-25 0 -24 52z" />
<glyph unicode="&#xb3;" d="M88 668q0 16 15.5 37.5t25.5 21.5q2 0 63.5 -20.5t126 -20.5t116.5 38t52 125t-46 122t-132 35h-37q-25 0 -24 36v13q0 37 24 37h33q82 0 120 49t38 98t-32 85t-94.5 36t-100 -10.5t-58 -19.5t-29 -9t-22.5 23.5t-14 37.5q0 25 73.5 44.5t137.5 19.5q111 0 176 -54.5 t65 -161t-123 -157.5v-8q59 -16 104.5 -72.5t45.5 -144.5q0 -125 -81 -186.5t-181.5 -61.5t-171 22.5t-70.5 45.5z" />
<glyph unicode="&#xb4;" d="M152 1259.5q0 20.5 118 227.5q31 53 128.5 53t97.5 -27q0 -14 -19.5 -38.5t-81 -94t-93.5 -105.5t-91 -36t-59 20.5z" />
<glyph unicode="&#xb5;" horiz-adv-x="1159" d="M174 -381v1411q0 45 82 45h8q82 0 82 -45v-694q0 -94 54.5 -146.5t154.5 -52.5q147 0 258 144v749q0 45 82 45h8q82 0 82 -45v-727q0 -123 10 -178q14 -76 15 -80q0 -25 -39 -36t-60.5 -11t-30 4t-15.5 14.5t-11 19.5t-8 25.5t-7 25.5t-6.5 28.5t-5.5 25.5 q-137 -154 -319 -153q-86 0 -162 30v-399q0 -45 -82 -45h-8q-82 0 -82 45z" />
<glyph unicode="&#xb6;" horiz-adv-x="1054" d="M84 976q0 185 136 321.5t329 136.5h436q41 0 41 -50v-28q0 -49 -41 -49h-74v-1616q0 -45 -49 -45h-28q-49 0 -50 45v1616h-159v-1616q0 -45 -50 -45h-28q-49 0 -49 45v815q-174 20 -294 152.5t-120 317.5z" />
<glyph unicode="&#xb7;" horiz-adv-x="546" d="M184 737q0 45 30 76t75 31t75.5 -31t30.5 -76t-30.5 -74.5t-75.5 -29.5t-75 29.5t-30 74.5z" />
<glyph unicode="&#xb8;" d="M92 -342q0 53 39 53q10 0 67.5 -20.5t102.5 -20.5q117 0 117 72q0 39 -34 57.5t-67.5 28.5t-33.5 33q0 4 4 24l35 115h88l-29 -100h8q33 0 66.5 -7.5t70.5 -43t37 -97.5q0 -182 -235 -182q-80 0 -158 24.5t-78 63.5z" />
<glyph unicode="&#xb9;" horiz-adv-x="444" d="M84 1358q0 16 20 22l218 58q37 0 36 -25v-776q0 -29 -45 -29h-10q-43 0 -43 29v692l-151 -33q-25 0 -25 62z" />
<glyph unicode="&#xba;" horiz-adv-x="690" d="M113 1172.5q0 132.5 61.5 203t173 70.5t171 -70.5t59.5 -203t-58.5 -201t-172.5 -68.5t-174 68.5t-60 201zM201 1174.5q0 -197.5 144 -197.5t144 197.5t-144 197.5t-144 -197.5z" />
<glyph unicode="&#xbb;" horiz-adv-x="964" d="M111 190.5q0 18.5 16 40.5l227 297l-227 295q-16 23 -16 44.5t25.5 42t47 20.5t43.5 -25l267 -319q27 -33 26.5 -57.5t-26.5 -57.5l-267 -319q-22 -27 -44.5 -27t-47 23.5t-24.5 42zM463 190.5q0 18.5 16 40.5l228 297l-228 295q-16 23 -16 44.5t25.5 42t47 20.5 t44.5 -25l266 -319q27 -33 26.5 -57.5t-26.5 -57.5l-266 -319q-23 -27 -45.5 -27t-47 23.5t-24.5 42z" />
<glyph unicode="&#xbc;" horiz-adv-x="1374" d="M84 1358q0 16 20 22l218 58q37 0 36 -25v-776q0 -29 -45 -29h-10q-43 0 -43 29v692l-151 -33q-25 0 -25 62zM184 8q0 12 9 23l831 1374q20 35 61 35h27q29 0 29 -15q0 -4 -8 -20l-832 -1374q-20 -35 -61 -35h-27q-29 0 -29 12zM698 235.5q0 14.5 2 18.5l390 557 q12 16 40 16h19q35 0 35 -26v-537h80q23 0 22 -35v-14q0 -37 -22 -37h-80v-155q0 -27 -35 -27h-27q-37 0 -37 27v155h-358q-8 0 -18.5 21.5t-10.5 36zM815 264h270v268l5 127l-7 5z" />
<glyph unicode="&#xbd;" horiz-adv-x="1527" d="M84 1358q0 16 20 22l218 58q37 0 36 -25v-776q0 -29 -45 -29h-10q-43 0 -43 29v692l-151 -33q-25 0 -25 62zM184 8q0 12 9 23l831 1374q20 35 61 35h27q29 0 29 -15q0 -4 -8 -20l-832 -1374q-20 -35 -61 -35h-27q-29 0 -29 12zM913 51q0 12 5 21q319 399 352 450 t33 105.5t-39 87.5t-97.5 33t-97.5 -15.5t-61.5 -30t-29.5 -14.5t-22.5 22.5t-15.5 37.5q0 35 75 60.5t138 25.5q117 0 184.5 -53.5t67.5 -140.5t-43 -156.5t-227 -295.5l-86 -104h340q23 0 22 -35v-14q0 -35 -22 -35h-451q-25 0 -25 51z" />
<glyph unicode="&#xbe;" horiz-adv-x="1511" d="M80 668q0 16 15.5 37.5t25.5 21.5q2 0 63.5 -20.5t126 -20.5t116.5 38t52 125t-46 122t-132 35h-37q-25 0 -24 36v13q0 37 24 37h33q82 0 120 49t38 98t-32 85t-94.5 36t-100.5 -10.5t-58 -19.5t-28.5 -9t-23 23.5t-14.5 37.5q0 25 74 44.5t137 19.5q111 0 176.5 -54.5 t65.5 -161t-123 -157.5v-8q59 -16 104.5 -72.5t45.5 -144.5q0 -125 -81 -186.5t-181.5 -61.5t-171 22.5t-70.5 45.5zM317 8q0 12 9 23l831 1374q20 35 62 35h26q29 0 29 -15q0 -4 -8 -20l-832 -1374q-20 -35 -61 -35h-27q-29 0 -29 12zM840 235.5q0 14.5 2 18.5l389 557 q12 16 41 16h18q35 0 35 -26v-537h80q23 0 22 -35v-14q0 -37 -22 -37h-80v-155q0 -27 -35 -27h-26q-37 0 -37 27v155h-359q-8 0 -18 21.5t-10 36zM956 264h271v268l4 127l-6 5z" />
<glyph unicode="&#xbf;" horiz-adv-x="870" d="M39 -32.5q0 143.5 133 282.5l115 115q143 137 157 251q6 41 68 41h31q61 0 61 -47q0 -150 -176 -325q-70 -70 -100.5 -104t-62.5 -89t-32 -102q0 -213 259 -213q78 0 163.5 34.5t89.5 34.5q14 0 40 -41t26 -63q0 -49 -114.5 -83t-237.5 -34q-197 0 -308.5 99.5 t-111.5 243zM436 895v135q0 45 82 45h35q82 0 82 -45v-135q0 -45 -82 -45h-35q-82 0 -82 45z" />
<glyph unicode="&#xc0;" horiz-adv-x="1255" d="M25 31q0 10 6 28l485 1346q10 33 82 33h59q72 0 82 -33l486 -1348q6 -14 6 -26q0 -35 -88 -35h-17q-72 0 -82 33l-120 336h-602l-117 -336q-10 -33 -82 -33h-10q-88 0 -88 35zM379 520h489l-215 610l-26 119l-33 -119zM422 1882q0 27 97 27t128 -54q119 -206 119 -226.5 t-59.5 -20.5t-92.5 37q-180 207 -186 218t-6 19z" />
<glyph unicode="&#xc1;" horiz-adv-x="1255" d="M25 31q0 10 6 28l485 1346q10 33 82 33h59q72 0 82 -33l486 -1348q6 -14 6 -26q0 -35 -88 -35h-17q-72 0 -82 33l-120 336h-602l-117 -336q-10 -33 -82 -33h-10q-88 0 -88 35zM379 520h489l-215 610l-26 119l-33 -119zM514 1628.5q0 20.5 119 226.5q31 53 128 53.5 t97 -26.5q0 -14 -19.5 -38.5t-81 -94.5t-94 -105.5t-91 -35.5t-58.5 20.5z" />
<glyph unicode="&#xc2;" horiz-adv-x="1255" d="M25 31q0 10 6 28l485 1346q10 33 82 33h59q72 0 82 -33l486 -1348q6 -14 6 -26q0 -35 -88 -35h-17q-72 0 -82 33l-120 336h-602l-117 -336q-10 -33 -82 -33h-10q-88 0 -88 35zM379 520h489l-215 610l-26 119l-33 -119zM381 1593q0 16 12 37l115 180q31 45 94 45h51 q63 0 95 -45l116 -180q12 -18 13 -35q0 -31 -46.5 -30.5t-74.5 26.5l-129 152l-125 -152q-29 -27 -75 -26.5t-46 28.5z" />
<glyph unicode="&#xc3;" horiz-adv-x="1255" d="M25 31q0 10 6 28l485 1346q10 33 82 33h59q72 0 82 -33l486 -1348q6 -14 6 -26q0 -35 -88 -35h-17q-72 0 -82 33l-120 336h-602l-117 -336q-10 -33 -82 -33h-10q-88 0 -88 35zM303 1704q0 39 69.5 77t139.5 38t153 -20.5t115.5 -20.5t64.5 13t51 13t38.5 -22.5 t19.5 -38.5q0 -39 -69.5 -77t-139 -38t-153.5 20.5t-110.5 20.5t-61.5 -13.5t-57.5 -13.5t-41 22t-18.5 40zM379 520h489l-215 610l-26 119l-33 -119z" />
<glyph unicode="&#xc4;" horiz-adv-x="1255" d="M25 31q0 10 6 28l485 1346q10 33 82 33h59q72 0 82 -33l486 -1348q6 -14 6 -26q0 -35 -88 -35h-17q-72 0 -82 33l-120 336h-602l-117 -336q-10 -33 -82 -33h-10q-88 0 -88 35zM379 520h489l-215 610l-26 119l-33 -119zM395 1657v104q0 45 82 45h8q82 0 82 -45v-104 q0 -45 -82 -45h-8q-82 0 -82 45zM690 1657v104q0 45 82 45h8q82 0 82 -45v-104q0 -45 -82 -45h-8q-82 0 -82 45z" />
<glyph unicode="&#xc5;" horiz-adv-x="1255" d="M25 31q0 10 6 28l485 1346q10 33 82 33h59q72 0 82 -33l486 -1348q6 -14 6 -26q0 -35 -88 -35h-17q-72 0 -82 33l-120 336h-602l-117 -336q-10 -33 -82 -33h-10q-88 0 -88 35zM379 520h489l-215 610l-26 119l-33 -119zM457 1695.5q0 71.5 50 123t121.5 51.5t123 -51.5 t51.5 -123t-51.5 -121.5t-123 -50t-121.5 50t-50 121.5zM528 1696q0 -43 29 -72t72 -29t72.5 29t29.5 72t-29.5 72.5t-72.5 29.5t-72 -29.5t-29 -72.5z" />
<glyph unicode="&#xc6;" horiz-adv-x="1873" d="M-23 31q0 16 9 32l657 1315q27 55 88 56h911q41 0 41 -62v-33q0 -61 -41 -61h-741l103 -467h577q41 0 41 -61v-33q0 -61 -41 -62h-545l109 -499h500q41 0 41 -62v-33q0 -61 -41 -61h-588q-61 0 -74 59l-65 306h-605l-163 -336q-18 -33 -82 -33h-11q-80 0 -80 35zM393 518 h490l-131 612l-9 119l-47 -119z" />
<glyph unicode="&#xc7;" horiz-adv-x="1267" d="M117 717q0 729 663 729q147 0 269 -42t122 -85q0 -29 -25.5 -74t-43.5 -45q-4 0 -44 22.5t-114 45t-160 22.5q-248 0 -364.5 -137t-116.5 -435t116 -436.5t357 -138.5q92 0 174 26t127 51.5t51 25.5q18 0 45 -45t27 -66q0 -47 -128 -97t-296 -50h-20l-25 -88h8 q33 0 67 -7.5t70.5 -43t36.5 -97.5q0 -182 -235 -182q-80 0 -158 24.5t-78 63.5q0 53 39 53q10 0 67.5 -20.5t102.5 -20.5q117 0 117 72q0 39 -34 57.5t-67.5 28.5t-33.5 33q0 4 4 24l33 109q-283 25 -418 202t-135 521z" />
<glyph unicode="&#xc8;" horiz-adv-x="1118" d="M199 61v1311q0 61 61 62h715q41 0 41 -62v-33q0 -61 -41 -61h-596v-467h534q41 0 41 -61v-33q0 -61 -41 -62h-534v-499h598q41 0 41 -62v-33q0 -61 -41 -61h-717q-61 0 -61 61zM403 1882q0 27 97.5 27t128.5 -54q119 -206 119 -226.5t-58.5 -20.5t-93.5 37 q-180 207 -186.5 218t-6.5 19z" />
<glyph unicode="&#xc9;" horiz-adv-x="1118" d="M199 61v1311q0 61 61 62h715q41 0 41 -62v-33q0 -61 -41 -61h-596v-467h534q41 0 41 -61v-33q0 -61 -41 -62h-534v-499h598q41 0 41 -62v-33q0 -61 -41 -61h-717q-61 0 -61 61zM496 1628.5q0 20.5 118 226.5q31 53 128.5 53.5t97.5 -26.5q0 -14 -19.5 -38.5t-81 -94.5 t-93.5 -105.5t-91 -35.5t-59 20.5z" />
<glyph unicode="&#xca;" horiz-adv-x="1118" d="M199 61v1311q0 61 61 62h715q41 0 41 -62v-33q0 -61 -41 -61h-596v-467h534q41 0 41 -61v-33q0 -61 -41 -62h-534v-499h598q41 0 41 -62v-33q0 -61 -41 -61h-717q-61 0 -61 61zM362 1593q0 16 13 37l114 180q31 45 95 45h51q63 0 94 -45l117 -180q12 -18 12 -35 q0 -31 -46 -30.5t-75 26.5l-129 152l-125 -152q-29 -27 -75 -26.5t-46 28.5z" />
<glyph unicode="&#xcb;" horiz-adv-x="1118" d="M199 61v1311q0 61 61 62h715q41 0 41 -62v-33q0 -61 -41 -61h-596v-467h534q41 0 41 -61v-33q0 -61 -41 -62h-534v-499h598q41 0 41 -62v-33q0 -61 -41 -61h-717q-61 0 -61 61zM377 1657v104q0 45 82 45h8q82 0 82 -45v-104q0 -45 -82 -45h-8q-82 0 -82 45zM672 1657v104 q0 45 82 45h8q82 0 82 -45v-104q0 -45 -82 -45h-8q-82 0 -82 45z" />
<glyph unicode="&#xcc;" horiz-adv-x="577" d="M82 1882q0 27 97 27t128 -54q119 -206 119 -226.5t-59.5 -20.5t-92.5 37q-180 207 -186 218t-6 19zM199 41v1352q0 45 82 45h16q82 0 82 -45v-1352q0 -45 -82 -45h-16q-82 0 -82 45z" />
<glyph unicode="&#xcd;" horiz-adv-x="577" d="M174 1628.5q0 20.5 119 226.5q31 53 128 53.5t97 -26.5q0 -14 -19.5 -38.5t-81 -94.5t-93 -105.5t-91 -35.5t-59.5 20.5zM199 41v1352q0 45 82 45h16q82 0 82 -45v-1352q0 -45 -82 -45h-16q-82 0 -82 45z" />
<glyph unicode="&#xce;" horiz-adv-x="577" d="M41 1593q0 16 12 37l115 180q31 45 94 45h51q63 0 95 -45l116 -180q12 -18 13 -35q0 -31 -46.5 -30.5t-74.5 26.5l-129 152l-125 -152q-29 -27 -75 -26.5t-46 28.5zM199 41v1352q0 45 82 45h16q82 0 82 -45v-1352q0 -45 -82 -45h-16q-82 0 -82 45z" />
<glyph unicode="&#xcf;" horiz-adv-x="577" d="M55 1657v104q0 45 82 45h8q82 0 82 -45v-104q0 -45 -82 -45h-8q-82 0 -82 45zM199 41v1352q0 45 82 45h16q82 0 82 -45v-1352q0 -45 -82 -45h-16q-82 0 -82 45zM350 1657v104q0 45 82 45h8q82 0 82 -45v-104q0 -45 -82 -45h-8q-82 0 -82 45z" />
<glyph unicode="&#xd0;" horiz-adv-x="1425" d="M0 717v33q0 61 41 61h133v561q0 61 62 62h440q274 0 450 -160q186 -170 187 -557q0 -547 -387 -680q-113 -37 -250 -37h-440q-62 0 -62 61v594h-133q-41 0 -41 62zM354 156h308q209 0 336.5 135t127.5 425t-128 426t-336 136h-308v-467h226q41 0 41 -61v-33 q0 -61 -41 -62h-226v-499z" />
<glyph unicode="&#xd1;" horiz-adv-x="1472" d="M184 41v1352q0 45 82 45h43q57 0 86 -39l654 -987l61 -115v1096q0 45 82 45h14q82 0 82 -45v-1352q0 -45 -82 -45h-41q-53 0 -71 29l-676 1019l-56 105v-1108q0 -45 -81 -45h-15q-82 0 -82 45zM410 1704q0 39 69.5 77t139 38t152.5 -20.5t116 -20.5t64.5 13t51 13 t39 -22.5t19.5 -38.5q0 -39 -69.5 -77t-139.5 -38t-154 20.5t-110.5 20.5t-61 -13.5t-57.5 -13.5t-41 22t-18 40z" />
<glyph unicode="&#xd2;" horiz-adv-x="1497" d="M117 720.5q0 358.5 160.5 542t470 183.5t471 -183.5t161.5 -542t-161.5 -545.5t-470 -187t-470 187t-161.5 545.5zM303 719.5q0 -281.5 113.5 -429t331 -147.5t332 147.5t114.5 429t-114.5 426t-332 144.5t-331 -144.5t-113.5 -426zM541 1882q0 27 97 27t128 -54 q119 -206 119 -226.5t-59.5 -20.5t-92.5 37q-180 207 -186 218t-6 19z" />
<glyph unicode="&#xd3;" horiz-adv-x="1497" d="M117 720.5q0 358.5 160.5 542t470 183.5t471 -183.5t161.5 -542t-161.5 -545.5t-470 -187t-470 187t-161.5 545.5zM303 719.5q0 -281.5 113.5 -429t331 -147.5t332 147.5t114.5 429t-114.5 426t-332 144.5t-331 -144.5t-113.5 -426zM633 1628.5q0 20.5 119 226.5 q31 53 128 53.5t97 -26.5q0 -14 -19.5 -38.5t-81 -94.5t-94 -105.5t-91 -35.5t-58.5 20.5z" />
<glyph unicode="&#xd4;" horiz-adv-x="1497" d="M117 720.5q0 358.5 160.5 542t470 183.5t471 -183.5t161.5 -542t-161.5 -545.5t-470 -187t-470 187t-161.5 545.5zM303 719.5q0 -281.5 113.5 -429t331 -147.5t332 147.5t114.5 429t-114.5 426t-332 144.5t-331 -144.5t-113.5 -426zM500 1593q0 16 12 37l115 180 q31 45 94 45h51q63 0 94 -45l117 -180q12 -18 12 -35q0 -31 -46 -30.5t-75 26.5l-129 152l-124 -152q-29 -27 -75 -26.5t-46 28.5z" />
<glyph unicode="&#xd5;" horiz-adv-x="1497" d="M117 720.5q0 358.5 160.5 542t470 183.5t471 -183.5t161.5 -542t-161.5 -545.5t-470 -187t-470 187t-161.5 545.5zM303 719.5q0 -281.5 113.5 -429t331 -147.5t332 147.5t114.5 429t-114.5 426t-332 144.5t-331 -144.5t-113.5 -426zM422 1704q0 39 69.5 77t139 38 t152.5 -20.5t116 -20.5t64.5 13t51 13t39 -22.5t19.5 -38.5q0 -39 -69.5 -77t-139 -38t-153.5 20.5t-111 20.5t-61.5 -13.5t-57 -13.5t-41 22t-18.5 40z" />
<glyph unicode="&#xd6;" horiz-adv-x="1497" d="M117 720.5q0 358.5 160.5 542t470 183.5t471 -183.5t161.5 -542t-161.5 -545.5t-470 -187t-470 187t-161.5 545.5zM303 719.5q0 -281.5 113.5 -429t331 -147.5t332 147.5t114.5 429t-114.5 426t-332 144.5t-331 -144.5t-113.5 -426zM514 1657v104q0 45 82 45h8 q82 0 82 -45v-104q0 -45 -82 -45h-8q-82 0 -82 45zM809 1657v104q0 45 82 45h8q82 0 82 -45v-104q0 -45 -82 -45h-8q-82 0 -82 45z" />
<glyph unicode="&#xd7;" horiz-adv-x="1146" d="M111 86q0 12 16 29l350 352l-350 350q-16 16 -16 28.5t16 28.5l39 41q14 14 28.5 14.5t28.5 -14.5l350 -352l351 352q14 14 28.5 14.5t28.5 -14.5l39 -41q14 -14 14 -28.5t-14 -28.5l-350 -350l350 -352q14 -14 14 -28.5t-14 -29.5l-39 -41q-16 -16 -28.5 -16t-28.5 16 l-351 355l-350 -355q-16 -16 -28.5 -16t-28.5 16l-39 41q-16 17 -16 29z" />
<glyph unicode="&#xd8;" horiz-adv-x="1497" d="M70 44q0 13 12 30l149 164q-115 182 -114 483q0 358 160.5 541.5t452.5 183.5t454 -150l112 125q14 16 28.5 16.5t30 -14t15.5 -28t-12 -27.5l-119 -131q141 -184 141 -529.5t-161.5 -532.5t-470 -187t-467.5 184l-138 -152q-16 -18 -29.5 -18t-28.5 14.5t-15 27.5z M303 721q0 -201 59 -338l701 780q-111 127 -322 127t-324.5 -144.5t-113.5 -424.5zM403 309q111 -166 336.5 -166t340 147.5t114.5 406.5t-82 401z" />
<glyph unicode="&#xd9;" horiz-adv-x="1458" d="M170 459v934q0 45 82 45h16q82 0 82 -45v-940q0 -135 107.5 -222.5t271.5 -87.5t271.5 87t107.5 223v940q0 45 82 45h16q82 0 82 -45v-934q0 -223 -145.5 -347t-414.5 -124t-413.5 124t-144.5 347zM522 1882q0 27 97.5 27t128.5 -54q118 -206 118 -226.5t-58 -20.5 t-93 37q-180 207 -186.5 218t-6.5 19z" />
<glyph unicode="&#xda;" horiz-adv-x="1458" d="M170 459v934q0 45 82 45h16q82 0 82 -45v-940q0 -135 107.5 -222.5t271.5 -87.5t271.5 87t107.5 223v940q0 45 82 45h16q82 0 82 -45v-934q0 -223 -145.5 -347t-414.5 -124t-413.5 124t-144.5 347zM614 1628.5q0 20.5 119 226.5q31 53 128 53.5t97 -26.5q0 -14 -19 -38.5 t-80.5 -94.5t-93.5 -105.5t-91.5 -35.5t-59.5 20.5z" />
<glyph unicode="&#xdb;" horiz-adv-x="1458" d="M170 459v934q0 45 82 45h16q82 0 82 -45v-940q0 -135 107.5 -222.5t271.5 -87.5t271.5 87t107.5 223v940q0 45 82 45h16q82 0 82 -45v-934q0 -223 -145.5 -347t-414.5 -124t-413.5 124t-144.5 347zM481 1593q0 16 13 37l114 180q31 45 94 45h52q63 0 94 -45l117 -180 q12 -18 12 -35q0 -31 -46 -30.5t-75 26.5l-129 152l-125 -152q-29 -27 -75 -26.5t-46 28.5z" />
<glyph unicode="&#xdc;" horiz-adv-x="1458" d="M170 459v934q0 45 82 45h16q82 0 82 -45v-940q0 -135 107.5 -222.5t271.5 -87.5t271.5 87t107.5 223v940q0 45 82 45h16q82 0 82 -45v-934q0 -223 -145.5 -347t-414.5 -124t-413.5 124t-144.5 347zM496 1657v104q0 45 82 45h8q82 0 82 -45v-104q0 -45 -82 -45h-8 q-82 0 -82 45zM791 1657v104q0 45 81 45h9q82 0 82 -45v-104q0 -45 -82 -45h-9q-82 0 -81 45z" />
<glyph unicode="&#xdd;" horiz-adv-x="1144" d="M37 1403q0 35 94 35h23q68 0 88 -31l336 -504l344 506q18 29 102 29t84 -35q0 -8 -16 -37l-430 -637v-688q0 -45 -82 -45h-17q-82 0 -82 45v694l-428 631q-16 23 -16 37zM457 1628.5q0 20.5 118 226.5q31 53 128.5 53.5t97.5 -26.5q0 -14 -19.5 -38.5t-81 -94.5 t-94.5 -105.5t-91 -35.5t-58 20.5z" />
<glyph unicode="&#xde;" horiz-adv-x="1161" d="M174 41v1352q0 45 82 45h16q82 0 82 -45v-209h297q158 0 291 -70q76 -39 121 -124t45 -199.5t-36 -195.5t-86 -124t-116 -70q-100 -41 -198 -41h-318v-319q0 -45 -82 -45h-16q-82 0 -82 45zM354 516h320q78 0 153 49q41 27 68 83.5t27 133.5q0 137 -82 191.5t-195 54.5 h-291v-512z" />
<glyph unicode="&#xdf;" horiz-adv-x="1134" d="M184 41v1026q0 168 111 273.5t294 105.5t293.5 -83t110.5 -265q0 -92 -58 -181.5t-151 -128.5q127 -29 198 -129t71 -237q0 -199 -125 -310.5t-316 -111.5h-65q-41 0 -41 61v25q0 61 41 61h67q111 0 184.5 74t73.5 200t-73.5 200.5t-184.5 74.5h-67q-41 0 -41 62v24 q0 61 41 62h20q96 0 170 69.5t74 167.5q0 217 -227 217q-104 0 -166 -62t-62 -169v-1026q0 -45 -82 -45h-8q-82 0 -82 45z" />
<glyph unicode="&#xe0;" horiz-adv-x="1116" d="M100 305q0 162 112 243t251 98.5t317 21.5v96q0 172 -225 172q-147 0 -272 -64q-43 -23 -47 -22q-20 0 -46 41t-26 61q0 43 119.5 87t287.5 44t274.5 -85t106.5 -236v-459q0 -123 11 -178q14 -76 14 -80q0 -25 -39 -36t-60.5 -11t-29.5 4t-15.5 14.5t-11.5 19.5t-8 25.5 t-7 25.5t-6 28.5t-5 25.5q-139 -154 -344 -153q-158 0 -254.5 77.5t-96.5 239.5zM285 305q0 -168 174 -168q100 0 173 37t148 105v241q-256 0 -329 -28q-39 -14 -82 -37q-84 -44 -84 -150zM342 1513q0 27 97.5 27t127.5 -53q119 -207 119 -227.5t-58.5 -20.5t-92.5 37 q-180 207 -186.5 218t-6.5 19z" />
<glyph unicode="&#xe1;" horiz-adv-x="1116" d="M100 305q0 162 112 243t251 98.5t317 21.5v96q0 172 -225 172q-147 0 -272 -64q-43 -23 -47 -22q-20 0 -46 41t-26 61q0 43 119.5 87t287.5 44t274.5 -85t106.5 -236v-459q0 -123 11 -178q14 -76 14 -80q0 -25 -39 -36t-60.5 -11t-29.5 4t-15.5 14.5t-11.5 19.5t-8 25.5 t-7 25.5t-6 28.5t-5 25.5q-139 -154 -344 -153q-158 0 -254.5 77.5t-96.5 239.5zM285 305q0 -168 174 -168q100 0 173 37t148 105v241q-256 0 -329 -28q-39 -14 -82 -37q-84 -44 -84 -150zM434 1259.5q0 20.5 119 227.5q31 53 128 53t97 -27q0 -14 -19.5 -38.5t-81 -94 t-93 -105.5t-91 -36t-59.5 20.5z" />
<glyph unicode="&#xe2;" horiz-adv-x="1116" d="M100 305q0 162 112 243t251 98.5t317 21.5v96q0 172 -225 172q-147 0 -272 -64q-43 -23 -47 -22q-20 0 -46 41t-26 61q0 43 119.5 87t287.5 44t274.5 -85t106.5 -236v-459q0 -123 11 -178q14 -76 14 -80q0 -25 -39 -36t-60.5 -11t-29.5 4t-15.5 14.5t-11.5 19.5t-8 25.5 t-7 25.5t-6 28.5t-5 25.5q-139 -154 -344 -153q-158 0 -254.5 77.5t-96.5 239.5zM285 305q0 -168 174 -168q100 0 173 37t148 105v241q-256 0 -329 -28q-39 -14 -82 -37q-84 -44 -84 -150zM301 1225q0 16 12 37l115 180q31 45 94 45h51q63 0 95 -45l116 -180q12 -18 13 -35 q0 -31 -46 -31t-75 27l-129 151l-125 -151q-29 -27 -75 -27t-46 29z" />
<glyph unicode="&#xe3;" horiz-adv-x="1116" d="M100 305q0 162 112 243t251 98.5t317 21.5v96q0 172 -225 172q-147 0 -272 -64q-43 -23 -47 -22q-20 0 -46 41t-26 61q0 43 119.5 87t287.5 44t274.5 -85t106.5 -236v-459q0 -123 11 -178q14 -76 14 -80q0 -25 -39 -36t-60.5 -11t-29.5 4t-15.5 14.5t-11.5 19.5t-8 25.5 t-7 25.5t-6 28.5t-5 25.5q-139 -154 -344 -153q-158 0 -254.5 77.5t-96.5 239.5zM223 1335q0 39 69.5 77t139.5 38t153 -20.5t115.5 -20.5t64.5 13.5t51.5 13.5t38.5 -22.5t19 -39.5q0 -39 -69.5 -76.5t-139 -37.5t-153.5 20t-110.5 20t-61.5 -13t-57.5 -13t-41 21.5 t-18.5 39.5zM285 305q0 -168 174 -168q100 0 173 37t148 105v241q-256 0 -329 -28q-39 -14 -82 -37q-84 -44 -84 -150z" />
<glyph unicode="&#xe4;" horiz-adv-x="1116" d="M100 305q0 162 112 243t251 98.5t317 21.5v96q0 172 -225 172q-147 0 -272 -64q-43 -23 -47 -22q-20 0 -46 41t-26 61q0 43 119.5 87t287.5 44t274.5 -85t106.5 -236v-459q0 -123 11 -178q14 -76 14 -80q0 -25 -39 -36t-60.5 -11t-29.5 4t-15.5 14.5t-11.5 19.5t-8 25.5 t-7 25.5t-6 28.5t-5 25.5q-139 -154 -344 -153q-158 0 -254.5 77.5t-96.5 239.5zM285 305q0 -168 174 -168q100 0 173 37t148 105v241q-256 0 -329 -28q-39 -14 -82 -37q-84 -44 -84 -150zM315 1288v105q0 45 82 45h9q82 0 81 -45v-105q0 -45 -81 -45h-9q-82 0 -82 45z M610 1288v105q0 45 82 45h8q82 0 82 -45v-105q0 -45 -82 -45h-8q-82 0 -82 45z" />
<glyph unicode="&#xe5;" horiz-adv-x="1116" d="M100 305q0 162 112 243t251 98.5t317 21.5v96q0 172 -225 172q-147 0 -272 -64q-43 -23 -47 -22q-20 0 -46 41t-26 61q0 43 119.5 87t287.5 44t274.5 -85t106.5 -236v-459q0 -123 11 -178q14 -76 14 -80q0 -25 -39 -36t-60.5 -11t-29.5 4t-15.5 14.5t-11.5 19.5t-8 25.5 t-7 25.5t-6 28.5t-5 25.5q-139 -154 -344 -153q-158 0 -254.5 77.5t-96.5 239.5zM285 305q0 -168 174 -168q100 0 173 37t148 105v241q-256 0 -329 -28q-39 -14 -82 -37q-84 -44 -84 -150zM377 1327q0 72 50 123t122 51t123 -51t51 -123t-51 -122t-123 -50t-122 50t-50 122z M449 1327q0 -43 28.5 -71.5t71.5 -28.5t72.5 28.5t29.5 71.5t-29.5 73t-72.5 30t-71.5 -30t-28.5 -73z" />
<glyph unicode="&#xe6;" horiz-adv-x="1697" d="M92 295q0 84 36 146.5t90 98t138 58.5q137 37 336 41q12 127 58 213q-53 84 -203 84q-147 0 -273 -64q-43 -23 -47 -22q-20 0 -45.5 41t-25.5 61q0 43 119.5 87t265.5 44q203 0 311 -98q117 98 318.5 98t308 -129t106.5 -376q0 -18 -24.5 -51t-42.5 -33h-648 q12 -186 88 -272.5t228 -86.5q139 0 256 66q39 20 43 20q20 0 45.5 -41t25.5 -61q0 -41 -111.5 -86t-256.5 -45q-252 0 -375 129q-156 -129 -371 -129q-158 0 -254 77.5t-96 229.5zM276 305q0 -168 175 -168q150 0 282 107q-45 104 -47 248q-301 -6 -375 -91 q-35 -39 -35 -96zM870 641h533q0 295 -246 295q-264 0 -287 -295z" />
<glyph unicode="&#xe7;" horiz-adv-x="993" d="M106 541q0 154 42 264t114 170q135 109 330 108q119 0 213 -28.5t94 -65.5q0 -27 -23.5 -68.5t-41.5 -41.5q-2 0 -7.5 2t-8.5 3t-7 3q-111 49 -223 49q-297 0 -297 -391q0 -217 72.5 -313.5t244.5 -96.5q125 0 232 53q6 2 13 5.5t9 3.5q20 0 45 -40t25 -65 q0 -37 -96.5 -70.5t-225.5 -33.5h-8l-24 -88h8q33 0 66.5 -7.5t70.5 -43t37 -97.5q0 -182 -236 -182q-80 0 -157.5 24.5t-77.5 63.5q0 53 39 53q10 0 67.5 -20.5t102.5 -20.5q117 0 116 72q0 39 -33.5 57.5t-67.5 28.5t-34 33q0 4 4 24l33 109q-207 20 -308.5 152.5 t-101.5 394.5z" />
<glyph unicode="&#xe8;" horiz-adv-x="1103" d="M113 527.5q0 273.5 120.5 414.5t344.5 141q434 0 434 -534q0 -18 -24.5 -51t-43.5 -33h-647q12 -170 88 -250t227 -80q139 0 256 66q39 20 43 20q20 0 46 -41t26 -61q0 -41 -111.5 -86t-257.5 -45q-256 0 -378.5 133t-122.5 406.5zM297 612h532q0 324 -245 324 q-264 0 -287 -324zM377 1513q0 27 97 27t128 -53q119 -207 119 -227.5t-59.5 -20.5t-92.5 37q-180 207 -186 218t-6 19z" />
<glyph unicode="&#xe9;" horiz-adv-x="1103" d="M113 527.5q0 273.5 120.5 414.5t344.5 141q434 0 434 -534q0 -18 -24.5 -51t-43.5 -33h-647q12 -170 88 -250t227 -80q139 0 256 66q39 20 43 20q20 0 46 -41t26 -61q0 -41 -111.5 -86t-257.5 -45q-256 0 -378.5 133t-122.5 406.5zM297 612h532q0 324 -245 324 q-264 0 -287 -324zM469 1259.5q0 20.5 119 227.5q31 53 128 53t97 -27q0 -14 -19.5 -38.5t-81 -94t-94 -105.5t-91 -36t-58.5 20.5z" />
<glyph unicode="&#xea;" horiz-adv-x="1103" d="M113 527.5q0 273.5 120.5 414.5t344.5 141q434 0 434 -534q0 -18 -24.5 -51t-43.5 -33h-647q12 -170 88 -250t227 -80q139 0 256 66q39 20 43 20q20 0 46 -41t26 -61q0 -41 -111.5 -86t-257.5 -45q-256 0 -378.5 133t-122.5 406.5zM297 612h532q0 324 -245 324 q-264 0 -287 -324zM336 1225q0 16 12 37l115 180q31 45 94 45h51q63 0 94 -45l117 -180q12 -18 12 -35q0 -31 -46 -31t-74 27l-129 151l-125 -151q-29 -27 -75 -27t-46 29z" />
<glyph unicode="&#xeb;" horiz-adv-x="1103" d="M113 527.5q0 273.5 120.5 414.5t344.5 141q434 0 434 -534q0 -18 -24.5 -51t-43.5 -33h-647q12 -170 88 -250t227 -80q139 0 256 66q39 20 43 20q20 0 46 -41t26 -61q0 -41 -111.5 -86t-257.5 -45q-256 0 -378.5 133t-122.5 406.5zM297 612h532q0 324 -245 324 q-264 0 -287 -324zM350 1288v105q0 45 82 45h8q82 0 82 -45v-105q0 -45 -82 -45h-8q-82 0 -82 45zM645 1288v105q0 45 82 45h8q82 0 82 -45v-105q0 -45 -82 -45h-8q-82 0 -82 45z" />
<glyph unicode="&#xec;" horiz-adv-x="542" d="M68 1513q0 27 97 27t128 -53q119 -207 119 -227.5t-58.5 -20.5t-93.5 37q-180 207 -186 218t-6 19zM186 41v989q0 45 82 45h8q82 0 82 -45v-989q0 -45 -82 -45h-8q-82 0 -82 45z" />
<glyph unicode="&#xed;" horiz-adv-x="542" d="M160 1259.5q0 20.5 119 227.5q31 53 128 53t97 -27q0 -14 -19.5 -38.5t-81 -94t-93 -105.5t-91 -36t-59.5 20.5zM186 41v989q0 45 82 45h8q82 0 82 -45v-989q0 -45 -82 -45h-8q-82 0 -82 45z" />
<glyph unicode="&#xee;" horiz-adv-x="542" d="M27 1225q0 16 12 37l115 180q31 45 94 45h51q63 0 94 -45l117 -180q12 -18 12 -35q0 -31 -46 -31t-75 27l-129 151l-125 -151q-29 -27 -74.5 -27t-45.5 29zM186 41v989q0 45 82 45h8q82 0 82 -45v-989q0 -45 -82 -45h-8q-82 0 -82 45z" />
<glyph unicode="&#xef;" horiz-adv-x="542" d="M41 1288v105q0 45 82 45h8q82 0 82 -45v-105q0 -45 -82 -45h-8q-82 0 -82 45zM186 41v989q0 45 82 45h8q82 0 82 -45v-989q0 -45 -82 -45h-8q-82 0 -82 45zM336 1288v105q0 45 82 45h8q82 0 82 -45v-105q0 -45 -82 -45h-8q-82 0 -82 45z" />
<glyph unicode="&#xf0;" horiz-adv-x="1165" d="M113 531.5q0 265.5 122.5 408.5t352.5 143q90 0 164 -24q-46 98 -95 184l-176 -24q-20 0 -36.5 21.5t-16.5 43t31 27.5l147 20q-53 78 -53 99q0 33 88 32q33 0 58.5 -29.5t62.5 -80.5q156 23 160 22q25 0 38 -24.5t13 -40.5q0 -23 -31 -27l-123 -16q233 -367 234 -736 q0 -266 -118 -404t-348.5 -138t-352 139t-121.5 404.5zM289 534.5q0 -204.5 71.5 -302t221 -97.5t221 97.5t71.5 302t-71.5 303t-221 98.5t-221 -98.5t-71.5 -303z" />
<glyph unicode="&#xf1;" horiz-adv-x="1140" d="M152 1018q0 25 38.5 36t60 11t30 -4t15.5 -13.5t11 -18.5t8 -24.5t7.5 -24.5t6.5 -26.5t5 -23.5q137 154 306 153.5t258 -88.5t89 -243v-711q0 -45 -82 -45h-8q-82 0 -82 45v694q0 94 -54 146.5t-155 52.5q-147 0 -258 -143v-750q0 -45 -82 -45h-8q-82 0 -82 45v719 q0 125 -10 178q-14 74 -14 80zM264 1335q0 39 69.5 77t139.5 38t153 -20.5t115.5 -20.5t64.5 13.5t51.5 13.5t38.5 -22.5t19 -39.5q0 -39 -69.5 -76.5t-139 -37.5t-153.5 20t-110.5 20t-61.5 -13t-57.5 -13t-41 21.5t-18.5 39.5z" />
<glyph unicode="&#xf2;" horiz-adv-x="1165" d="M113 531.5q0 265.5 122.5 408.5t350 143t347.5 -142t120 -409.5t-118 -405.5t-348.5 -138t-352 139t-121.5 404.5zM293 535.5q0 -205.5 69.5 -303t219 -97.5t221 97.5t71.5 302t-71.5 303t-221 98.5t-219 -97.5t-69.5 -303zM375 1513q0 27 97 27t128 -53 q119 -207 119 -227.5t-58.5 -20.5t-93.5 37q-180 207 -186 218t-6 19z" />
<glyph unicode="&#xf3;" horiz-adv-x="1165" d="M113 531.5q0 265.5 122.5 408.5t350 143t347.5 -142t120 -409.5t-118 -405.5t-348.5 -138t-352 139t-121.5 404.5zM293 535.5q0 -205.5 69.5 -303t219 -97.5t221 97.5t71.5 302t-71.5 303t-221 98.5t-219 -97.5t-69.5 -303zM467 1259.5q0 20.5 119 227.5q31 53 128 53 t97 -27q0 -14 -19.5 -38.5t-81 -94t-93 -105.5t-91 -36t-59.5 20.5z" />
<glyph unicode="&#xf4;" horiz-adv-x="1165" d="M113 531.5q0 265.5 122.5 408.5t350 143t347.5 -142t120 -409.5t-118 -405.5t-348.5 -138t-352 139t-121.5 404.5zM293 535.5q0 -205.5 69.5 -303t219 -97.5t221 97.5t71.5 302t-71.5 303t-221 98.5t-219 -97.5t-69.5 -303zM334 1225q0 16 12 37l115 180q31 45 94 45h51 q63 0 94 -45l117 -180q12 -18 12 -35q0 -31 -46 -31t-74 27l-129 151l-125 -151q-29 -27 -75 -27t-46 29z" />
<glyph unicode="&#xf5;" horiz-adv-x="1165" d="M113 531.5q0 265.5 122.5 408.5t350 143t347.5 -142t120 -409.5t-118 -405.5t-348.5 -138t-352 139t-121.5 404.5zM256 1335q0 39 69.5 77t139.5 38t152.5 -20.5t115.5 -20.5t64.5 13.5t51 13.5t39 -22.5t19.5 -39.5q0 -39 -69.5 -76.5t-139 -37.5t-153.5 20t-110.5 20 t-61.5 -13t-57.5 -13t-41 21.5t-18.5 39.5zM293 535.5q0 -205.5 69.5 -303t219 -97.5t221 97.5t71.5 302t-71.5 303t-221 98.5t-219 -97.5t-69.5 -303z" />
<glyph unicode="&#xf6;" horiz-adv-x="1165" d="M113 531.5q0 265.5 122.5 408.5t350 143t347.5 -142t120 -409.5t-118 -405.5t-348.5 -138t-352 139t-121.5 404.5zM293 535.5q0 -205.5 69.5 -303t219 -97.5t221 97.5t71.5 302t-71.5 303t-221 98.5t-219 -97.5t-69.5 -303zM348 1288v105q0 45 82 45h8q82 0 82 -45v-105 q0 -45 -82 -45h-8q-82 0 -82 45zM643 1288v105q0 45 82 45h8q82 0 82 -45v-105q0 -45 -82 -45h-8q-82 0 -82 45z" />
<glyph unicode="&#xf7;" horiz-adv-x="1146" d="M98 465v14q0 61 62 62h827q61 0 62 -62v-14q0 -61 -62 -62h-827q-61 0 -62 62zM487 41v104q0 45 82 45h9q82 0 81 -45v-104q0 -45 -81 -45h-9q-82 0 -82 45zM487 799v104q0 45 82 45h9q82 0 81 -45v-104q0 -45 -81 -45h-9q-82 0 -82 45z" />
<glyph unicode="&#xf8;" horiz-adv-x="1165" d="M113 530q0 164 43 279t116 170q133 102 327 102t312 -112l70 82q16 16 28.5 16t29 -15.5t16.5 -27.5t-13 -29l-79 -92q90 -137 90 -373q0 -541 -465 -540q-205 0 -322 100l-59 -70q-16 -16 -29.5 -16t-30 15.5t-16.5 26.5t14 30l64 76q-96 133 -96 378zM291 535 q0 -154 37 -244l473 549q-72 94 -217.5 94t-219 -92t-73.5 -307zM375 215q70 -78 210 -78t214.5 92.5t74.5 305.5q0 141 -32 227z" />
<glyph unicode="&#xf9;" horiz-adv-x="1140" d="M154 319v711q0 45 82 45h8q82 0 82 -45v-694q0 -94 54 -146.5t155 -52.5q147 0 258 144v749q0 45 81 45h9q82 0 82 -45v-727q0 -123 10 -178q14 -76 14 -80q0 -25 -39 -36t-60.5 -11t-29.5 4t-15 14.5t-11.5 19.5t-8.5 25.5t-7 25.5t-6 28.5t-5 25.5 q-137 -154 -306 -153.5t-258 88t-89 243.5zM356 1513q0 27 97.5 27t128.5 -53q118 -207 118 -227.5t-59 -20.5t-92 37q-180 207 -186.5 218t-6.5 19z" />
<glyph unicode="&#xfa;" horiz-adv-x="1140" d="M154 319v711q0 45 82 45h8q82 0 82 -45v-694q0 -94 54 -146.5t155 -52.5q147 0 258 144v749q0 45 81 45h9q82 0 82 -45v-727q0 -123 10 -178q14 -76 14 -80q0 -25 -39 -36t-60.5 -11t-29.5 4t-15 14.5t-11.5 19.5t-8.5 25.5t-7 25.5t-6 28.5t-5 25.5 q-137 -154 -306 -153.5t-258 88t-89 243.5zM449 1259.5q0 20.5 118 227.5q31 53 128.5 53t97.5 -27q0 -14 -19.5 -38.5t-81 -94t-94.5 -105.5t-91 -36t-58 20.5z" />
<glyph unicode="&#xfb;" horiz-adv-x="1140" d="M154 319v711q0 45 82 45h8q82 0 82 -45v-694q0 -94 54 -146.5t155 -52.5q147 0 258 144v749q0 45 81 45h9q82 0 82 -45v-727q0 -123 10 -178q14 -76 14 -80q0 -25 -39 -36t-60.5 -11t-29.5 4t-15 14.5t-11.5 19.5t-8.5 25.5t-7 25.5t-6 28.5t-5 25.5 q-137 -154 -306 -153.5t-258 88t-89 243.5zM315 1225q0 16 13 37l114 180q31 45 95 45h51q63 0 94 -45l117 -180q12 -18 12 -35q0 -31 -46 -31t-75 27l-129 151l-125 -151q-29 -27 -75 -27t-46 29z" />
<glyph unicode="&#xfc;" horiz-adv-x="1140" d="M154 319v711q0 45 82 45h8q82 0 82 -45v-694q0 -94 54 -146.5t155 -52.5q147 0 258 144v749q0 45 81 45h9q82 0 82 -45v-727q0 -123 10 -178q14 -76 14 -80q0 -25 -39 -36t-60.5 -11t-29.5 4t-15 14.5t-11.5 19.5t-8.5 25.5t-7 25.5t-6 28.5t-5 25.5 q-137 -154 -306 -153.5t-258 88t-89 243.5zM330 1288v105q0 45 82 45h8q82 0 82 -45v-105q0 -45 -82 -45h-8q-82 0 -82 45zM625 1288v105q0 45 82 45h8q82 0 82 -45v-105q0 -45 -82 -45h-8q-82 0 -82 45z" />
<glyph unicode="&#xfd;" horiz-adv-x="985" d="M37 1040q0 35 88 35h16q68 0 82 -33l279 -739l272 739q10 33 91 33t81 -35q0 -10 -6 -28l-526 -1395q-16 -43 -97 -43h-30q-68 0 -68 33q0 6 182 450l-358 957q-6 18 -6 26zM377 1259.5q0 20.5 119 227.5q31 53 128 53t97 -27q0 -14 -19.5 -38.5t-81 -94t-93 -105.5 t-91 -36t-59.5 20.5z" />
<glyph unicode="&#xfe;" horiz-adv-x="1167" d="M174 -381v1876q0 45 82 45h8q82 0 82 -45v-551q141 139 317.5 139t284 -151.5t107.5 -388.5v-19q0 -252 -115 -394t-287 -142t-307 104v-473q0 -45 -82 -45h-8q-82 0 -82 45zM346 231q111 -92 248 -92h12q131 2 199.5 100.5t68.5 289t-65.5 298t-199.5 107.5t-263 -141 v-562z" />
<glyph unicode="&#xff;" horiz-adv-x="985" d="M37 1040q0 35 88 35h16q68 0 82 -33l279 -739l272 739q10 33 91 33t81 -35q0 -10 -6 -28l-526 -1395q-16 -43 -97 -43h-30q-68 0 -68 33q0 6 182 450l-358 957q-6 18 -6 26zM258 1288v105q0 45 82 45h8q82 0 82 -45v-105q0 -45 -82 -45h-8q-82 0 -82 45zM553 1288v105 q0 45 82 45h8q82 0 82 -45v-105q0 -45 -82 -45h-8q-82 0 -82 45z" />
<glyph unicode="&#x152;" horiz-adv-x="2091" d="M117 720.5q0 358.5 160.5 542t461.5 183.5t459 -168v94q0 61 62 62h720q41 0 41 -62v-33q0 -61 -41 -61h-602v-467h541q41 0 41 -61v-33q0 -61 -41 -62h-541v-499h604q41 0 41 -62v-33q0 -61 -41 -61h-722q-61 0 -62 61v99q-158 -172 -458 -172t-461.5 187t-161.5 545.5z M303 719.5q0 -281.5 113.5 -429t331 -147.5t332 147.5t114.5 429t-114.5 426t-332 144.5t-331 -144.5t-113.5 -426z" />
<glyph unicode="&#x153;" horiz-adv-x="1783" d="M113 531.5q0 265.5 122.5 408.5t342 143t335.5 -120q121 121 333 120.5t318.5 -136.5t106.5 -398q0 -18 -24.5 -51t-42.5 -33h-648q12 -170 88 -250t228 -80q139 0 256 66q39 20 43 20q20 0 45.5 -41t25.5 -61q0 -41 -111.5 -86t-256.5 -45q-240 0 -361 114 q-119 -115 -338 -114.5t-340.5 139.5t-121.5 404.5zM293 535.5q0 -205.5 69.5 -303t226 -97.5t226.5 115q-43 115 -43 280.5t45 282.5q-70 123 -227.5 123t-227 -97.5t-69.5 -303zM956 612h533q0 324 -246 324q-264 0 -287 -324z" />
<glyph unicode="&#x178;" horiz-adv-x="1144" d="M37 1403q0 35 94 35h23q68 0 88 -31l336 -504l344 506q18 29 102 29t84 -35q0 -8 -16 -37l-430 -637v-688q0 -45 -82 -45h-17q-82 0 -82 45v694l-428 631q-16 23 -16 37zM338 1657v104q0 45 82 45h8q82 0 82 -45v-104q0 -45 -82 -45h-8q-82 0 -82 45zM633 1657v104 q0 45 82 45h8q82 0 82 -45v-104q0 -45 -82 -45h-8q-82 0 -82 45z" />
<glyph unicode="&#x2c6;" d="M74 1225q0 16 12 37l115 180q31 45 94 45h51q63 0 94 -45l117 -180q12 -18 12 -35q0 -31 -46 -31t-74 27l-130 151l-124 -151q-29 -27 -75 -27t-46 29z" />
<glyph unicode="&#x2dc;" horiz-adv-x="747" d="M49 1335q0 39 69.5 77t139.5 38t153 -20.5t115.5 -20.5t64.5 13.5t51.5 13.5t38.5 -22.5t19 -39.5q0 -39 -69.5 -76.5t-139 -37.5t-153.5 20t-110.5 20t-61.5 -13t-57.5 -13t-41 21.5t-18.5 39.5z" />
<glyph unicode="&#x2000;" horiz-adv-x="954" />
<glyph unicode="&#x2001;" horiz-adv-x="1909" />
<glyph unicode="&#x2002;" horiz-adv-x="954" />
<glyph unicode="&#x2003;" horiz-adv-x="1909" />
<glyph unicode="&#x2004;" horiz-adv-x="636" />
<glyph unicode="&#x2005;" horiz-adv-x="477" />
<glyph unicode="&#x2006;" horiz-adv-x="318" />
<glyph unicode="&#x2007;" horiz-adv-x="318" />
<glyph unicode="&#x2008;" horiz-adv-x="238" />
<glyph unicode="&#x2009;" horiz-adv-x="381" />
<glyph unicode="&#x200a;" horiz-adv-x="106" />
<glyph unicode="&#x2010;" d="M90 532v21q0 61 41 61h387q41 0 41 -61v-21q0 -61 -41 -61h-387q-41 0 -41 61z" />
<glyph unicode="&#x2011;" d="M90 532v21q0 61 41 61h387q41 0 41 -61v-21q0 -61 -41 -61h-387q-41 0 -41 61z" />
<glyph unicode="&#x2012;" d="M90 532v21q0 61 41 61h387q41 0 41 -61v-21q0 -61 -41 -61h-387q-41 0 -41 61z" />
<glyph unicode="&#x2013;" horiz-adv-x="1024" d="M0 532v21q0 61 41 61h942q41 0 41 -61v-21q0 -61 -41 -61h-942q-41 0 -41 61z" />
<glyph unicode="&#x2014;" horiz-adv-x="2048" d="M0 532v21q0 61 41 61h1966q41 0 41 -61v-21q0 -61 -41 -61h-1966q-41 0 -41 61z" />
<glyph unicode="&#x2018;" horiz-adv-x="434" d="M119 1112q0 166 74.5 283.5t135 117.5t60.5 -30q0 -12 -18 -49q-70 -133 -70 -314q0 -66 -82 -65h-18q-82 0 -82 57z" />
<glyph unicode="&#x2019;" horiz-adv-x="434" d="M66 1116q0 12 18 49q70 139 70 314q0 66 82 65h18q82 0 82 -57q0 -166 -75 -284t-135 -118t-60 31z" />
<glyph unicode="&#x201a;" horiz-adv-x="405" d="M25 -207q0 12 18 49q70 140 70 314q0 66 82 65h18q82 0 82 -57q0 -166 -75 -284t-135 -118t-60 31z" />
<glyph unicode="&#x201c;" horiz-adv-x="716" d="M82 1112q0 166 74.5 283.5t135 117.5t60.5 -30q0 -12 -18 -49q-70 -133 -70 -314q0 -66 -82 -65h-18q-82 0 -82 57zM367 1112q0 166 74.5 283.5t135 117.5t60.5 -30q0 -12 -19 -49q-70 -133 -69 -314q0 -66 -82 -65h-18q-82 0 -82 57z" />
<glyph unicode="&#x201d;" horiz-adv-x="716" d="M70 1116q0 12 18 49q70 139 70 314q0 66 82 65h18q82 0 82 -57q0 -166 -75 -284t-135 -118t-60 31zM354 1116q0 12 19 49q70 139 69 314q0 66 82 65h19q82 0 82 -57q0 -166 -75 -284t-135.5 -118t-60.5 31z" />
<glyph unicode="&#x201e;" horiz-adv-x="688" d="M25 -207q0 12 18 49q70 140 70 314q0 66 82 65h18q82 0 82 -57q0 -166 -75 -284t-135 -118t-60 31zM309 -207q0 12 19 49q69 140 69 314q0 66 82 65h19q82 0 82 -57q0 -166 -75 -284t-135.5 -118t-60.5 31z" />
<glyph unicode="&#x2022;" horiz-adv-x="688" d="M86 668.5q0 107.5 75 182.5t182.5 75t182 -76t74.5 -182.5t-74.5 -181t-183.5 -74.5t-182.5 74.5t-73.5 182z" />
<glyph unicode="&#x2026;" horiz-adv-x="1263" d="M104 41v135q0 45 82 45h35q82 0 82 -45v-135q0 -45 -82 -45h-35q-82 0 -82 45zM532 41v135q0 45 82 45h35q82 0 82 -45v-135q0 -45 -82 -45h-35q-82 0 -82 45zM958 41v135q0 45 82 45h35q82 0 82 -45v-135q0 -45 -82 -45h-35q-82 0 -82 45z" />
<glyph unicode="&#x202f;" horiz-adv-x="381" />
<glyph unicode="&#x2039;" horiz-adv-x="614" d="M94 528.5q0 24.5 27 57.5l266 319q23 25 44.5 25t47 -20.5t25.5 -42t-17 -44.5l-227 -295l227 -297q16 -23 16.5 -41t-24 -41.5t-47 -23.5t-45.5 27l-266 319q-27 33 -27 57.5z" />
<glyph unicode="&#x203a;" horiz-adv-x="614" d="M111 190.5q0 18.5 16 40.5l227 297l-227 295q-16 23 -16 44.5t25.5 42t47 20.5t43.5 -25l267 -319q27 -33 26.5 -57.5t-26.5 -57.5l-267 -319q-22 -27 -44.5 -27t-47 23.5t-24.5 42z" />
<glyph unicode="&#x205f;" horiz-adv-x="477" />
<glyph unicode="&#x20ac;" horiz-adv-x="1228" d="M0 545v14q0 61 41 62h100q-2 31 -2 95t2 95h-100q-41 0 -41 61v15q0 61 41 61h117q41 246 195.5 372t394.5 126q131 0 240.5 -42t109.5 -85q0 -27 -25.5 -69t-44.5 -42q-4 0 -39 22.5t-101.5 45t-144.5 22.5q-168 0 -268 -82.5t-135 -267.5h569q41 0 41 -61v-15 q0 -61 -41 -61h-585q-2 -31 -2 -96.5t2 -93.5h585q41 0 41 -62v-14q0 -61 -41 -62h-569q35 -178 137.5 -263t249.5 -85q86 0 162 25.5t119 51.5t47 26q18 0 44.5 -42t26.5 -61q0 -47 -116.5 -97t-266.5 -50q-514 0 -589 495h-113q-41 0 -41 62z" />
<glyph unicode="&#x2122;" horiz-adv-x="1581" d="M61 1380v19q0 35 23 35h541q23 0 22 -35v-19q0 -35 -22 -34h-217v-697q0 -25 -48 -24h-8q-47 0 -47 24v697h-221q-23 0 -23 34zM721 649v762q0 25 45 25h43q37 0 47 -21l219 -379l29 -71l31 65l217 385q14 20 49 21h39q45 0 45 -25v-762q0 -25 -45 -24h-8q-47 0 -48 24 v621l-231 -404q-8 -14 -25 -14h-47q-16 0 -24 14l-236 410v-627q0 -25 -47 -24h-8q-45 -1 -45 24z" />
<glyph unicode="&#x25fc;" horiz-adv-x="1075" d="M0 0v1075h1075v-1075h-1075z" />
<glyph unicode="&#xfb01;" horiz-adv-x="1153" d="M98 985v25q0 61 41 61h82v195q0 176 94 233q80 49 170 49q150 0 150 -61q0 -20 -12.5 -58t-30.5 -38q-4 0 -28.5 5t-68.5 5t-73 -30t-29 -122v-178h178q41 0 41 -61v-25q0 -61 -41 -61h-178v-883q0 -45 -82 -45h-8q-82 0 -82 45v883h-82q-41 0 -41 61zM788 1374v121 q0 45 82 45h25q82 0 82 -45v-121q0 -45 -82 -45h-25q-82 0 -82 45zM797 41v989q0 45 82 45h8q82 0 82 -45v-989q0 -45 -82 -45h-8q-82 0 -82 45z" />
<glyph unicode="&#xfb02;" horiz-adv-x="1210" d="M98 985v25q0 61 41 61h82v195q0 176 94 233q80 49 170 49q150 0 150 -61q0 -20 -12.5 -58t-30.5 -38q-4 0 -28.5 5t-68.5 5t-73 -30t-29 -122v-178h178q41 0 41 -61v-25q0 -61 -41 -61h-178v-883q0 -45 -82 -45h-8q-82 0 -82 45v883h-82q-41 0 -41 61zM778 270v1225 q0 45 82 45h8q82 0 82 -45v-1208q0 -152 111 -152q35 0 59.5 5t28.5 5q18 0 30.5 -37.5t12.5 -58.5q0 -61 -150 -61q-102 0 -183 62t-81 220z" />
</font>
</defs>
</svg>
