<?xml version="1.0" standalone="no"?>
<!DOCTYPE svg PUBLIC "-//W3C//DTD SVG 1.1//EN" "http://www.w3.org/Graphics/SVG/1.1/DTD/svg11.dtd" >
<svg xmlns="http://www.w3.org/2000/svg">
<metadata>Generated by IcoMoon</metadata>
<defs>
<font id="CET-iconfontset2016v2" horiz-adv-x="1024">
<font-face units-per-em="1024" ascent="960" descent="-64" />
<missing-glyph horiz-adv-x="1024" />
<glyph unicode="&#x20;" horiz-adv-x="512" d="" />
<glyph unicode="&#xe600;" glyph-name="arrow1-right" d="M782.364 469.699l-471.216 471.314c-6.399 6.497-14.704 9.526-23.107 9.526s-16.805-3.029-23.107-9.526l-0.586-0.586c-6.204-6.106-9.526-14.411-9.526-23.058v-228.72c0-8.793 3.322-17 9.526-23.106l218.804-218.853-218.804-218.852c-6.204-6.253-9.526-14.606-9.526-23.107v-228.72c0-8.891 3.322-17.049 9.526-23.204l0.586-0.635c6.009-6.253 14.509-9.575 23.107-9.575s17 3.322 23.107 9.575l471.217 471.314c12.847 12.896 12.847 33.511-0.001 46.213z" />
<glyph unicode="&#xe601;" glyph-name="global-pageindicator-assessment" d="M198.528 766.304c-89.82 0-164.925-59.593-186.905-148.308-0.962-3.868-0.327-7.858 1.719-11.276s5.28-5.812 9.148-6.774l104.677-26.174c7.306-1.842 15.103 2.394 17.62 9.393 8.472 23.453 27.853 47.11 52.206 47.11 38.371 0 52.042-24.107 52.042-46.66 0-23.534 0-52.82-100.523-52.82-8.227 0-14.898-6.692-14.898-14.898v-155.512c0-8.206 6.672-14.898 14.898-14.898h106.171c8.227 0 14.919 6.692 14.919 14.898v56.073c70.153 16.065 124.712 84.253 124.712 156.371 0 117.53-76.866 193.475-195.786 193.475zM252.739 443.677c-7.347-0.982-12.913-7.326-12.913-14.776v-53.597h-76.395v125.92c81.941 2.415 115.401 26.42 115.401 82.391 0 45.739-32.887 76.456-81.818 76.456-43.692 0-67.35-39.047-74.901-54.334l-77.377 19.36c22.9 67.779 82.903 111.39 153.813 111.39 102.365 0 165.949-62.704 165.949-163.657-0.001-62.991-50.14-120.947-111.759-129.153zM197.771 319.149c-44.961 0-78.83-33.869-78.83-78.789 0-44.9 33.849-78.769 78.83-78.769 44.879 0 78.789 33.869 78.789 78.769 0 44.92-33.91 78.789-78.789 78.789zM197.771 191.388c-28.426 0-49.013 20.588-49.013 48.972s20.588 48.993 49.013 48.993c28.385 0 48.972-20.608 48.972-48.993s-20.588-48.972-48.972-48.972zM596.809 746.739c-44.961 0-78.83-33.869-78.83-78.789 0-44.9 33.849-78.769 78.83-78.769 44.879 0 78.789 33.869 78.789 78.769 0.001 44.92-33.91 78.789-78.789 78.789zM596.856 492.218c27.866 0 48.092-20.226 48.092-48.092 0-27.855-20.226-48.072-48.092-48.072-27.89 0-48.133 20.217-48.133 48.072-0.001 27.866 20.242 48.092 48.133 48.092zM596.856 522.915c-44.961 0-78.831-33.869-78.831-78.789 0-44.9 33.849-78.769 78.831-78.769 44.879 0 78.789 33.869 78.789 78.769-0.001 44.919-33.91 78.789-78.789 78.789v0zM598.561 308.917c-44.961 0-78.83-33.869-78.83-78.789 0-44.9 33.849-78.769 78.83-78.769 44.879 0 78.789 33.869 78.789 78.769 0 44.919-33.91 78.789-78.789 78.789zM995.111 657.281h-245.577c-11.312 0-20.465 9.163-20.465 20.465s9.153 20.465 20.465 20.465h245.577c11.312 0 20.465-9.163 20.465-20.465s-9.153-20.465-20.465-20.465zM995.111 432.169h-245.577c-11.312 0-20.465 9.153-20.465 20.465 0 11.302 9.153 20.465 20.465 20.465h245.577c11.312 0 20.465-9.163 20.465-20.465 0-11.312-9.153-20.465-20.465-20.465zM995.111 201.94h-245.577c-11.312 0-20.465 9.153-20.465 20.465s9.153 20.465 20.465 20.465h245.577c11.312 0 20.465-9.153 20.465-20.465s-9.153-20.465-20.465-20.465z" />
<glyph unicode="&#xe602;" glyph-name="global-placeholder" d="M9 954h1008v-1008h-1008v1008z" />
<glyph unicode="&#xe603;" glyph-name="global-plus1" d="M7.414 591.044h376.187v362.74h257.042v-362.74h376.251v-286.067h-376.25v-362.866h-257.042v362.866h-376.188v286.067z" />
<glyph unicode="&#xe604;" glyph-name="global-smalli" d="M418.159 724.053c-25.525 25.525-38.288 56.742-38.288 93.823 0 36.994 12.763 68.297 38.288 93.823s56.785 38.288 93.823 38.288c37.038 0 68.297-12.763 93.823-38.288s38.288-56.828 38.288-93.823c0-37.081-12.763-68.297-38.288-93.823s-56.785-38.288-93.823-38.288c-37.037 0-68.297 12.762-93.823 38.288zM624.561-53.452c0-0.275-0.225-0.5-0.5-0.5h-224.157c-0.275 0-0.5 0.225-0.5 0.5v585.91c0 0.275 0.225 0.5 0.5 0.5h224.157c0.275 0 0.5-0.225 0.5-0.5v-585.91z" />
<glyph unicode="&#xe605;" glyph-name="global-x1" d="M12.786 171.969l289.035 285.764-280.002 283.207 197.492 195.258 280.002-283.207 289.084 285.813 220.818-223.345-289.084-285.813 280.1-283.305-197.492-195.258-280.1 283.305-289.035-285.764-220.818 223.345z" />
<glyph unicode="&#xe606;" glyph-name="badge-courseassessment" d="M995.111 201.94h-245.577c-11.312 0-20.465 9.153-20.465 20.465s9.153 20.465 20.465 20.465h245.577c11.312 0 20.465-9.153 20.465-20.465s-9.153-20.465-20.465-20.465zM995.111 432.169h-245.577c-11.312 0-20.465 9.153-20.465 20.465 0 11.302 9.153 20.465 20.465 20.465h245.577c11.312 0 20.465-9.163 20.465-20.465 0-11.312-9.153-20.465-20.465-20.465zM995.111 657.281h-245.577c-11.312 0-20.465 9.163-20.465 20.465s9.153 20.465 20.465 20.465h245.577c11.312 0 20.465-9.163 20.465-20.465s-9.153-20.465-20.465-20.465zM598.561 308.917c-44.961 0-78.83-33.869-78.83-78.789 0-44.9 33.849-78.769 78.83-78.769 44.879 0 78.789 33.869 78.789 78.769 0 44.919-33.91 78.789-78.789 78.789zM596.699 491.377c27.355 0 47.209-19.854 47.209-47.21 0-27.344-19.854-47.19-47.209-47.19-27.379 0-47.25 19.846-47.25 47.19 0 27.355 19.872 47.21 47.25 47.21zM596.699 521.511c-44.136 0-77.384-33.248-77.384-77.344 0-44.076 33.228-77.323 77.384-77.323 44.056 0 77.343 33.248 77.343 77.323 0 44.095-33.287 77.344-77.343 77.344v0zM596.809 746.739c-44.961 0-78.83-33.869-78.83-78.789 0-44.9 33.849-78.769 78.83-78.769 44.879 0 78.789 33.869 78.789 78.769 0.001 44.92-33.91 78.789-78.789 78.789zM336.684 319.797c-15.137-25.424-34.547-30.761-48.164-30.761-10.337 0-21.133 3.121-32.088 9.276-7.036 3.887-13.648 5.776-20.211 5.776-6.558 0-13.165-1.887-20.195-5.767-10.956-6.169-21.754-9.297-32.095-9.297-13.599 0-32.994 5.335-48.148 30.73-4.83 8.072-10.537 13.538-17.621 16.738v-197.25l117.012 68.371 117.012-68.371v196.219c-6.122-3.289-11.171-8.426-15.502-15.664zM452.309 565.57c11.711 20.844 7.284 37.318-13.308 49.589-3.845 2.306-7.336 4.813-10.472 7.523-2.091 1.806-4.024 3.703-5.799 5.69-0.888 0.994-1.736 2.010-2.544 3.048-4.044 5.194-7.101 10.955-9.172 17.292s-3.155 13.248-3.251 20.742c-0.073 4.476-0.558 8.54-1.454 12.193-3.883 15.828-15.499 23.916-34.939 24.144-1.495 0.021-2.968 0.082-4.417 0.182-2.899 0.2-5.706 0.558-8.421 1.074-6.789 1.29-13.005 3.566-18.652 6.827-2.259 1.305-4.426 2.767-6.503 4.386s-4.063 3.397-5.958 5.331-3.7 4.026-5.415 6.275c-1.714 2.249-3.339 4.656-4.872 7.219-0.683 1.145-1.384 2.221-2.093 3.266-0.16 0.236-0.32 0.472-0.482 0.703-0.703 1.004-1.416 1.97-2.144 2.878-0.103 0.128-0.208 0.246-0.312 0.372-0.663 0.811-1.338 1.578-2.022 2.31-0.159 0.17-0.317 0.345-0.477 0.511-0.753 0.78-1.519 1.513-2.298 2.198-0.163 0.143-0.328 0.276-0.492 0.416-0.707 0.6-1.424 1.165-2.152 1.688-0.129 0.093-0.257 0.195-0.387 0.285-0.813 0.566-1.64 1.076-2.478 1.546-0.198 0.111-0.397 0.216-0.597 0.322-0.83 0.441-1.669 0.85-2.524 1.198l-0.109 0.049c-0.883 0.356-1.784 0.645-2.694 0.903-0.212 0.060-0.424 0.119-0.638 0.174-0.906 0.232-1.822 0.427-2.754 0.563 0 0-0.243 0.025-0.363 0.041-0.857 0.113-1.726 0.181-2.605 0.212-0.203 0.007-0.406 0.019-0.61 0.022 0 0-0.284 0.016-0.428 0.016-0.852 0-1.715-0.043-2.587-0.118 0 0-0.319-0.041-0.477-0.057-0.87-0.088-1.75-0.215-2.64-0.376-0.3-0.054-0.601-0.114-0.903-0.177-0.869-0.181-1.748-0.395-2.636-0.645-0.198-0.056-0.393-0.1-0.592-0.159-1.073-0.319-2.16-0.694-3.26-1.114-0.272-0.104-0.547-0.223-0.821-0.333-0.867-0.349-1.742-0.728-2.626-1.138-0.321-0.149-0.641-0.296-0.965-0.453-1.139-0.554-2.287-1.141-3.453-1.796-2.605-1.457-5.212-2.732-7.819-3.824-0.978-0.41-1.955-0.794-2.933-1.152-6.845-2.51-13.693-3.764-20.542-3.764-6.6 0-13.2 1.18-19.797 3.511-1.226 0.433-2.452 0.892-3.678 1.406-2.607 1.093-5.213 2.367-7.819 3.824-1.168 0.654-2.317 1.239-3.457 1.792-0.324 0.157-0.646 0.304-0.968 0.453-0.881 0.408-1.754 0.784-2.619 1.131-0.278 0.111-0.559 0.232-0.835 0.337-1.097 0.417-2.182 0.79-3.252 1.108-0.208 0.062-0.411 0.107-0.618 0.165-0.879 0.247-1.749 0.459-2.61 0.638-0.308 0.064-0.616 0.124-0.921 0.18-0.881 0.159-1.754 0.285-2.616 0.372-0.166 0.017-0.335 0.046-0.5 0.060-0.872 0.074-1.735 0.117-2.587 0.117-0.143 0-0.282-0.013-0.424-0.016-0.206-0.003-0.409-0.015-0.614-0.022-0.879-0.032-1.749-0.099-2.607-0.212-0.119-0.016-0.241-0.023-0.36-0.040-0.935-0.136-1.854-0.331-2.764-0.564-0.209-0.053-0.416-0.111-0.623-0.17-0.915-0.258-1.822-0.549-2.711-0.907l-0.068-0.030c-0.87-0.353-1.724-0.769-2.569-1.218-0.193-0.102-0.385-0.204-0.577-0.311-0.843-0.473-1.675-0.985-2.493-1.554-0.123-0.086-0.243-0.182-0.366-0.27-0.738-0.529-1.464-1.1-2.18-1.708-0.158-0.134-0.317-0.261-0.473-0.399-0.783-0.688-1.553-1.424-2.31-2.208-0.155-0.161-0.308-0.331-0.463-0.496-0.689-0.736-1.368-1.508-2.036-2.324-0.101-0.124-0.205-0.239-0.305-0.365-0.729-0.908-1.442-1.875-2.146-2.88-0.161-0.23-0.321-0.466-0.481-0.702-0.709-1.045-1.411-2.121-2.094-3.266-3.061-5.134-6.486-9.638-10.275-13.51-1.895-1.936-3.88-3.714-5.957-5.335-3.115-2.431-6.435-4.506-9.96-6.226-2.35-1.146-4.791-2.135-7.323-2.965s-5.155-1.502-7.869-2.016c-4.071-0.77-8.347-1.185-12.828-1.243-5.967-0.070-11.201-0.884-15.7-2.439-2.25-0.777-4.316-1.74-6.198-2.887s-3.581-2.479-5.095-3.996c-1.136-1.137-2.168-2.378-3.098-3.723-0.929-1.344-1.755-2.792-2.477-4.344-0.481-1.034-0.917-2.114-1.306-3.24s-0.733-2.298-1.030-3.515c-0.892-3.653-1.37-7.717-1.433-12.193-0.092-5.621-0.733-10.912-1.925-15.879-0.397-1.655-0.856-3.275-1.376-4.858-0.832-2.533-1.82-4.975-2.966-7.325s-2.449-4.609-3.908-6.777c-2.19-3.252-4.734-6.3-7.632-9.146-3.864-3.794-8.359-7.23-13.486-10.312-6.426-3.835-11.285-8.077-14.569-12.735-0.493-0.699-0.95-1.407-1.371-2.124-0.843-1.435-1.545-2.907-2.105-4.417-0.28-0.755-0.524-1.519-0.733-2.293-1.114-4.127-1.217-8.523-0.306-13.192 0.91-4.669 2.835-9.61 5.777-14.828 11.711-20.9 11.711-41.744 0-62.588-2.206-3.919-3.841-7.684-4.906-11.296-0.71-2.408-1.166-4.748-1.369-7.020s-0.153-4.476 0.15-6.613c0.227-1.602 0.597-3.167 1.109-4.693s1.166-3.015 1.962-4.465c1.061-1.934 2.375-3.8 3.941-5.599s3.384-3.531 5.455-5.195c2.070-1.665 4.393-3.262 6.967-4.792 1.282-0.763 2.524-1.55 3.727-2.359 3.609-2.427 6.863-5.059 9.763-7.895 0.967-0.946 1.894-1.914 2.782-2.905 4.884-5.451 8.576-11.59 11.080-18.418s3.817-14.345 3.942-22.55c0.042-2.994 0.268-5.805 0.679-8.432 0.205-1.314 0.457-2.581 0.754-3.803 0.595-2.443 1.374-4.702 2.336-6.777 1.444-3.112 3.302-5.809 5.574-8.090 1.515-1.521 3.213-2.857 5.095-4.007 2.823-1.726 6.060-3.034 9.71-3.925s7.713-1.362 12.188-1.415c16.449-0.193 30.117-5.219 41.041-15.005 2.979-2.669 5.754-5.692 8.326-9.068 1.714-2.251 3.339-4.658 4.872-7.221l0.003-0.005c0.682-1.143 1.382-2.217 2.090-3.26 0.16-0.236 0.32-0.472 0.482-0.703 0.702-1.004 1.415-1.969 2.143-2.877 0.104-0.129 0.21-0.248 0.21-0.248 0.768-0.939 1.444-1.708 2.129-2.44 0.156-0.167 0.31-0.339 0.468-0.502 0.755-0.782 1.523-1.516 2.303-2.203 0.16-0.141 0.324-0.272 0.485-0.41 0.715-0.607 1.439-1.177 2.174-1.705 0.122-0.087 0.241-0.183 0.363-0.268 0.816-0.568 1.646-1.079 2.488-1.551 0.194-0.109 0.39-0.212 0.585-0.316 0.853-0.453 1.714-0.874 2.593-1.229l0.036-0.016c0.888-0.358 1.795-0.648 2.71-0.906 0.208-0.059 0.416-0.117 0.625-0.171 0.907-0.232 1.824-0.425 2.757-0.561 0.127-0.018 0.257-0.027 0.384-0.043 0.854-0.111 1.719-0.178 2.594-0.209 0.199-0.007 0.397-0.019 0.597-0.022 0.135-0.002 0.266-0.015 0.402-0.015 0.858 0 1.729 0.044 2.607 0.12 0.178 0.015 0.36 0.046 0.539 0.065 0.85 0.088 1.71 0.213 2.579 0.371 0.307 0.056 0.615 0.117 0.924 0.182 0.864 0.181 1.738 0.396 2.621 0.646 0.201 0.057 0.399 0.102 0.601 0.162 1.070 0.321 2.154 0.697 3.251 1.118 0.279 0.107 0.563 0.23 0.844 0.344 0.861 0.348 1.73 0.726 2.607 1.136 0.323 0.151 0.646 0.299 0.972 0.459 1.139 0.557 2.286 1.146 3.452 1.804 7.816 4.328 15.641 7.034 23.467 8.116 2.609 0.361 5.218 0.541 7.827 0.541 10.436 0 20.872-2.886 31.294-8.657 1.165-0.656 2.312-1.244 3.45-1.799 0.328-0.16 0.652-0.309 0.978-0.46 0.874-0.407 1.739-0.782 2.596-1.128 0.285-0.115 0.572-0.239 0.855-0.347 1.095-0.419 2.178-0.794 3.246-1.114 0.205-0.061 0.406-0.106 0.611-0.164 0.88-0.249 1.751-0.463 2.612-0.643 0.311-0.065 0.62-0.126 0.929-0.182 0.867-0.158 1.725-0.282 2.574-0.37 0.181-0.019 0.365-0.050 0.545-0.066 0.879-0.076 1.75-0.12 2.609-0.12 0.134 0 0.265 0.013 0.265 0.013 0.335 0.005 0.533 0.017 0.732 0.024 0.875 0.031 1.741 0.097 2.595 0.208 0.128 0.017 0.258 0.025 0.258 0.025 1.062 0.154 1.982 0.347 2.891 0.579 0.206 0.052 0.41 0.11 0.614 0.167 0.918 0.258 1.828 0.549 2.72 0.908l0.018 0.008c0.887 0.358 1.756 0.782 2.617 1.239 0.191 0.101 0.381 0.202 0.57 0.308 0.845 0.474 1.68 0.987 2.5 1.558 0.115 0.080 0.227 0.17 0.342 0.252 0.744 0.533 1.476 1.109 2.198 1.723 0.157 0.133 0.315 0.261 0.471 0.398 0.783 0.688 1.553 1.425 2.31 2.209 0.153 0.159 0.304 0.327 0.456 0.49 0.689 0.736 1.368 1.509 2.035 2.326 0.102 0.125 0.206 0.241 0.307 0.367 0.728 0.909 1.441 1.876 2.144 2.882 0.159 0.228 0.317 0.461 0.475 0.695 0.709 1.046 1.409 2.123 2.092 3.27 12.271 20.508 30.313 31.014 54.239 31.294s36.001 12.467 36.393 36.449c0.21 14.919 4.349 27.561 12.431 37.927 1.616 2.073 3.39 4.055 5.322 5.946s4.021 3.691 6.269 5.4c2.247 1.709 4.653 3.327 7.216 4.854 2.57 1.534 4.889 3.134 6.956 4.8s3.882 3.399 5.445 5.199c1.563 1.8 2.875 3.666 3.934 5.599 5.296 9.667 4.292 21.012-3.028 34.074-11.65 20.846-11.65 41.69 0.004 62.59z" />
<glyph unicode="&#xe607;" glyph-name="badge-coursesurvey" d="M544.474 661.711v-315.336h87.606l-0.032-133.998 134.314 133.998h231.903v315.336h-453.791zM919.67 461.054h-296.601v35.542h296.601v-35.542zM919.67 526.53h-296.601v35.517h296.601v-35.517zM336.684 319.797c-15.137-25.424-34.547-30.761-48.164-30.761-10.337 0-21.133 3.121-32.088 9.276-7.036 3.887-13.648 5.776-20.211 5.776-6.558 0-13.165-1.887-20.195-5.767-10.956-6.169-21.754-9.297-32.095-9.297-13.599 0-32.994 5.335-48.148 30.73-4.83 8.072-10.537 13.538-17.621 16.738v-197.25l117.012 68.371 117.012-68.371v196.219c-6.122-3.289-11.171-8.426-15.502-15.664zM452.309 565.57c11.711 20.844 7.284 37.318-13.308 49.589-3.845 2.306-7.336 4.813-10.472 7.523-2.091 1.806-4.024 3.703-5.799 5.69-0.888 0.994-1.736 2.010-2.544 3.048-4.044 5.194-7.101 10.955-9.172 17.292s-3.155 13.248-3.251 20.742c-0.073 4.476-0.558 8.54-1.454 12.193-3.883 15.828-15.499 23.916-34.939 24.144-1.495 0.021-2.968 0.082-4.417 0.182-2.899 0.2-5.706 0.558-8.421 1.074-6.789 1.29-13.005 3.566-18.652 6.827-2.259 1.305-4.426 2.767-6.503 4.386s-4.063 3.397-5.958 5.331-3.7 4.026-5.415 6.275c-1.714 2.249-3.339 4.656-4.872 7.219-0.683 1.145-1.384 2.221-2.093 3.266-0.16 0.236-0.32 0.472-0.482 0.703-0.703 1.004-1.416 1.97-2.144 2.878-0.103 0.128-0.208 0.246-0.312 0.372-0.663 0.811-1.338 1.578-2.022 2.31-0.159 0.17-0.317 0.345-0.477 0.511-0.753 0.78-1.519 1.513-2.298 2.198-0.163 0.143-0.328 0.276-0.492 0.416-0.707 0.6-1.424 1.165-2.152 1.688-0.129 0.093-0.257 0.195-0.387 0.285-0.813 0.566-1.64 1.076-2.478 1.546-0.198 0.111-0.397 0.216-0.597 0.322-0.83 0.441-1.669 0.85-2.524 1.198l-0.109 0.049c-0.883 0.356-1.784 0.645-2.694 0.903-0.212 0.060-0.424 0.119-0.638 0.174-0.906 0.232-1.822 0.427-2.754 0.563 0 0-0.243 0.025-0.363 0.041-0.857 0.113-1.726 0.181-2.605 0.212-0.203 0.007-0.406 0.019-0.61 0.022 0 0-0.284 0.016-0.428 0.016-0.852 0-1.715-0.043-2.587-0.118 0 0-0.319-0.041-0.477-0.057-0.87-0.088-1.75-0.215-2.64-0.376-0.3-0.054-0.601-0.114-0.903-0.177-0.869-0.181-1.748-0.395-2.636-0.645-0.198-0.056-0.393-0.1-0.592-0.159-1.073-0.319-2.16-0.694-3.26-1.114-0.272-0.104-0.547-0.223-0.821-0.333-0.867-0.349-1.742-0.728-2.626-1.138-0.321-0.149-0.641-0.296-0.965-0.453-1.139-0.554-2.287-1.141-3.453-1.796-2.605-1.457-5.212-2.732-7.819-3.824-0.978-0.41-1.955-0.794-2.933-1.152-6.845-2.51-13.693-3.764-20.542-3.764-6.6 0-13.2 1.18-19.797 3.511-1.226 0.433-2.452 0.892-3.678 1.406-2.607 1.093-5.213 2.367-7.819 3.824-1.168 0.654-2.317 1.239-3.457 1.792-0.324 0.157-0.646 0.304-0.968 0.453-0.881 0.408-1.754 0.784-2.619 1.131-0.278 0.111-0.559 0.232-0.835 0.337-1.097 0.417-2.182 0.79-3.252 1.108-0.208 0.062-0.411 0.107-0.618 0.165-0.879 0.247-1.749 0.459-2.61 0.638-0.308 0.064-0.616 0.124-0.921 0.18-0.881 0.159-1.754 0.285-2.616 0.372-0.166 0.017-0.335 0.046-0.5 0.060-0.872 0.074-1.735 0.117-2.587 0.117-0.143 0-0.282-0.013-0.424-0.016-0.206-0.003-0.409-0.015-0.614-0.022-0.879-0.032-1.749-0.099-2.607-0.212-0.119-0.016-0.241-0.023-0.36-0.040-0.935-0.136-1.854-0.331-2.764-0.564-0.209-0.053-0.416-0.111-0.623-0.17-0.915-0.258-1.822-0.549-2.711-0.907l-0.068-0.030c-0.87-0.353-1.724-0.769-2.569-1.218-0.193-0.102-0.385-0.204-0.577-0.311-0.843-0.473-1.675-0.985-2.493-1.554-0.123-0.086-0.243-0.182-0.366-0.27-0.738-0.529-1.464-1.1-2.18-1.708-0.158-0.134-0.317-0.261-0.473-0.399-0.783-0.688-1.553-1.424-2.31-2.208-0.155-0.161-0.308-0.331-0.463-0.496-0.689-0.736-1.368-1.508-2.036-2.324-0.101-0.124-0.205-0.239-0.305-0.365-0.729-0.908-1.442-1.875-2.146-2.88-0.161-0.23-0.321-0.466-0.481-0.702-0.709-1.045-1.411-2.121-2.094-3.266-3.061-5.134-6.486-9.638-10.275-13.51-1.895-1.936-3.88-3.714-5.957-5.335-3.115-2.431-6.435-4.506-9.96-6.226-2.35-1.146-4.791-2.135-7.323-2.965s-5.155-1.502-7.869-2.016c-4.071-0.77-8.347-1.185-12.828-1.243-5.967-0.070-11.201-0.884-15.7-2.439-2.25-0.777-4.316-1.74-6.198-2.887s-3.581-2.479-5.095-3.996c-1.136-1.137-2.168-2.378-3.098-3.723-0.929-1.344-1.755-2.792-2.477-4.344-0.481-1.034-0.917-2.114-1.306-3.24s-0.733-2.298-1.030-3.515c-0.892-3.653-1.37-7.717-1.433-12.193-0.092-5.621-0.733-10.912-1.925-15.879-0.397-1.655-0.856-3.275-1.376-4.858-0.832-2.533-1.82-4.975-2.966-7.325s-2.449-4.609-3.908-6.777c-2.19-3.252-4.734-6.3-7.632-9.146-3.864-3.794-8.359-7.23-13.486-10.312-6.426-3.835-11.285-8.077-14.569-12.735-0.493-0.699-0.95-1.407-1.371-2.124-0.843-1.435-1.545-2.907-2.105-4.417-0.28-0.755-0.524-1.519-0.733-2.293-1.114-4.127-1.217-8.523-0.306-13.192 0.91-4.669 2.835-9.61 5.777-14.828 11.711-20.9 11.711-41.744 0-62.588-2.206-3.919-3.841-7.684-4.906-11.296-0.71-2.408-1.166-4.748-1.369-7.020s-0.153-4.476 0.15-6.613c0.227-1.602 0.597-3.167 1.109-4.693s1.166-3.015 1.962-4.465c1.061-1.934 2.375-3.8 3.941-5.599s3.384-3.531 5.455-5.195c2.070-1.665 4.393-3.262 6.967-4.792 1.282-0.763 2.524-1.55 3.727-2.359 3.609-2.427 6.863-5.059 9.763-7.895 0.967-0.946 1.894-1.914 2.782-2.905 4.884-5.451 8.576-11.59 11.080-18.418s3.817-14.345 3.942-22.55c0.042-2.994 0.268-5.805 0.679-8.432 0.205-1.314 0.457-2.581 0.754-3.803 0.595-2.443 1.374-4.702 2.336-6.777 1.444-3.112 3.302-5.809 5.574-8.090 1.515-1.521 3.213-2.857 5.095-4.007 2.823-1.726 6.060-3.034 9.71-3.925s7.713-1.362 12.188-1.415c16.449-0.193 30.117-5.219 41.041-15.005 2.979-2.669 5.754-5.692 8.326-9.068 1.714-2.251 3.339-4.658 4.872-7.221l0.003-0.005c0.682-1.143 1.382-2.217 2.090-3.26 0.16-0.236 0.32-0.472 0.482-0.703 0.702-1.004 1.415-1.969 2.143-2.877 0.104-0.129 0.21-0.248 0.21-0.248 0.768-0.939 1.444-1.708 2.129-2.44 0.156-0.167 0.31-0.339 0.468-0.502 0.755-0.782 1.523-1.516 2.303-2.203 0.16-0.141 0.324-0.272 0.485-0.41 0.715-0.607 1.439-1.177 2.174-1.705 0.122-0.087 0.241-0.183 0.363-0.268 0.816-0.568 1.646-1.079 2.488-1.551 0.194-0.109 0.39-0.212 0.585-0.316 0.853-0.453 1.714-0.874 2.593-1.229l0.036-0.016c0.888-0.358 1.795-0.648 2.71-0.906 0.208-0.059 0.416-0.117 0.625-0.171 0.907-0.232 1.824-0.425 2.757-0.561 0.127-0.018 0.257-0.027 0.384-0.043 0.854-0.111 1.719-0.178 2.594-0.209 0.199-0.007 0.397-0.019 0.597-0.022 0.135-0.002 0.266-0.015 0.402-0.015 0.858 0 1.729 0.044 2.607 0.12 0.178 0.015 0.36 0.046 0.539 0.065 0.85 0.088 1.71 0.213 2.579 0.371 0.307 0.056 0.615 0.117 0.924 0.182 0.864 0.181 1.738 0.396 2.621 0.646 0.201 0.057 0.399 0.102 0.601 0.162 1.070 0.321 2.154 0.697 3.251 1.118 0.279 0.107 0.563 0.23 0.844 0.344 0.861 0.348 1.73 0.726 2.607 1.136 0.323 0.151 0.646 0.299 0.972 0.459 1.139 0.557 2.286 1.146 3.452 1.804 7.816 4.328 15.641 7.034 23.467 8.116 2.609 0.361 5.218 0.541 7.827 0.541 10.436 0 20.872-2.886 31.294-8.657 1.165-0.656 2.312-1.244 3.45-1.799 0.328-0.16 0.652-0.309 0.978-0.46 0.874-0.407 1.739-0.782 2.596-1.128 0.285-0.115 0.572-0.239 0.855-0.347 1.095-0.419 2.178-0.794 3.246-1.114 0.205-0.061 0.406-0.106 0.611-0.164 0.88-0.249 1.751-0.463 2.612-0.643 0.311-0.065 0.62-0.126 0.929-0.182 0.867-0.158 1.725-0.282 2.574-0.37 0.181-0.019 0.365-0.050 0.545-0.066 0.879-0.076 1.75-0.12 2.609-0.12 0.134 0 0.265 0.013 0.265 0.013 0.335 0.005 0.533 0.017 0.732 0.024 0.875 0.031 1.741 0.097 2.595 0.208 0.128 0.017 0.258 0.025 0.258 0.025 1.062 0.154 1.982 0.347 2.891 0.579 0.206 0.052 0.41 0.11 0.614 0.167 0.918 0.258 1.828 0.549 2.72 0.908l0.018 0.008c0.887 0.358 1.756 0.782 2.617 1.239 0.191 0.101 0.381 0.202 0.57 0.308 0.845 0.474 1.68 0.987 2.5 1.558 0.115 0.080 0.227 0.17 0.342 0.252 0.744 0.533 1.476 1.109 2.198 1.723 0.157 0.133 0.315 0.261 0.471 0.398 0.783 0.688 1.553 1.425 2.31 2.209 0.153 0.159 0.304 0.327 0.456 0.49 0.689 0.736 1.368 1.509 2.035 2.326 0.102 0.125 0.206 0.241 0.307 0.367 0.728 0.909 1.441 1.876 2.144 2.882 0.159 0.228 0.317 0.461 0.475 0.695 0.709 1.046 1.409 2.123 2.092 3.27 12.271 20.508 30.313 31.014 54.239 31.294s36.001 12.467 36.393 36.449c0.21 14.919 4.349 27.561 12.431 37.927 1.616 2.073 3.39 4.055 5.322 5.946s4.021 3.691 6.269 5.4c2.247 1.709 4.653 3.327 7.216 4.854 2.57 1.534 4.889 3.134 6.956 4.8s3.882 3.399 5.445 5.199c1.563 1.8 2.875 3.666 3.934 5.599 5.296 9.667 4.292 21.012-3.028 34.074-11.65 20.846-11.65 41.69 0.004 62.59z" />
<glyph unicode="&#xe608;" glyph-name="badge-courseassessmentlocked" d="M995.111 201.94h-245.577c-11.312 0-20.465 9.153-20.465 20.465s9.153 20.465 20.465 20.465h245.577c11.312 0 20.465-9.153 20.465-20.465s-9.153-20.465-20.465-20.465zM995.111 432.169h-245.577c-11.312 0-20.465 9.153-20.465 20.465 0 11.302 9.153 20.465 20.465 20.465h245.577c11.312 0 20.465-9.163 20.465-20.465 0-11.312-9.153-20.465-20.465-20.465zM995.111 657.281h-245.577c-11.312 0-20.465 9.163-20.465 20.465s9.153 20.465 20.465 20.465h245.577c11.312 0 20.465-9.163 20.465-20.465s-9.153-20.465-20.465-20.465zM598.561 308.917c-44.961 0-78.83-33.869-78.83-78.789 0-44.9 33.849-78.769 78.83-78.769 44.879 0 78.789 33.869 78.789 78.769 0 44.919-33.91 78.789-78.789 78.789zM596.699 491.377c27.355 0 47.209-19.854 47.209-47.21 0-27.344-19.854-47.19-47.209-47.19-27.379 0-47.25 19.846-47.25 47.19 0 27.355 19.872 47.21 47.25 47.21zM596.699 521.511c-44.136 0-77.384-33.248-77.384-77.344 0-44.076 33.228-77.323 77.384-77.323 44.056 0 77.343 33.248 77.343 77.323 0 44.095-33.287 77.344-77.343 77.344v0zM596.809 746.739c-44.961 0-78.83-33.869-78.83-78.789 0-44.9 33.849-78.769 78.83-78.769 44.879 0 78.789 33.869 78.789 78.769 0.001 44.92-33.91 78.789-78.789 78.789zM185.265 526.801h98.148v43.387c0 6.74-1.334 13.058-4 18.956-2.667 5.897-6.248 11.022-10.742 15.375-4.492 4.353-9.688 7.793-15.586 10.32s-12.216 3.791-18.956 3.791c-6.74 0-13.058-1.264-18.956-3.791-5.897-2.527-11.093-6.038-15.586-10.531s-8.004-9.688-10.531-15.586-3.791-12.216-3.791-18.956v-42.965zM397.99 526.801c3.651 0 6.739-1.264 9.267-3.791 2.527-2.527 3.791-5.616 3.791-9.267v-193.77c0-3.651-1.264-6.74-3.791-9.267-2.528-2.527-5.616-3.791-9.267-3.791h-322.668c-3.651 0-6.74 1.264-9.267 3.791s-3.791 5.616-3.791 9.267v193.77c0 3.651 1.264 6.74 3.791 9.267s5.617 3.791 9.267 3.791h40.017v42.965c0 16.288 3.159 31.733 9.478 46.336s14.814 27.24 25.485 37.911c10.671 10.671 23.238 19.166 37.701 25.485 14.462 6.319 29.838 9.478 46.125 9.478s31.733-3.159 46.336-9.478c14.603-6.319 27.239-14.814 37.91-25.485 10.673-10.671 19.168-23.308 25.485-37.911s9.479-30.048 9.479-46.336v-42.966l44.652 0.001z" />
<glyph unicode="&#xe609;" glyph-name="dashboardbadge-courseassessmentcompleted" d="M995.111 201.94h-245.577c-11.312 0-20.465 9.153-20.465 20.465s9.153 20.465 20.465 20.465h245.577c11.312 0 20.465-9.153 20.465-20.465s-9.153-20.465-20.465-20.465zM995.111 432.169h-245.577c-11.312 0-20.465 9.153-20.465 20.465 0 11.302 9.153 20.465 20.465 20.465h245.577c11.312 0 20.465-9.163 20.465-20.465 0-11.312-9.153-20.465-20.465-20.465zM995.111 657.281h-245.577c-11.312 0-20.465 9.163-20.465 20.465s9.153 20.465 20.465 20.465h245.577c11.312 0 20.465-9.163 20.465-20.465s-9.153-20.465-20.465-20.465zM598.561 308.917c-44.961 0-78.83-33.869-78.83-78.789 0-44.9 33.849-78.769 78.83-78.769 44.879 0 78.789 33.869 78.789 78.769 0 44.919-33.91 78.789-78.789 78.789zM596.699 491.377c27.355 0 47.209-19.854 47.209-47.21 0-27.344-19.854-47.19-47.209-47.19-27.379 0-47.25 19.846-47.25 47.19 0 27.355 19.872 47.21 47.25 47.21zM596.699 521.511c-44.136 0-77.384-33.248-77.384-77.344 0-44.076 33.228-77.323 77.384-77.323 44.056 0 77.343 33.248 77.343 77.323 0 44.095-33.287 77.344-77.343 77.344v0zM596.809 746.739c-44.961 0-78.83-33.869-78.83-78.789 0-44.9 33.849-78.769 78.83-78.769 44.879 0 78.789 33.869 78.789 78.769 0.001 44.92-33.91 78.789-78.789 78.789zM447.338 563.969l-38.726 38.681c-5.313 5.31-11.771 7.963-19.363 7.963-7.595 0-14.054-2.653-19.366-7.963l-186.798-186.87-83.718 83.908c-5.316 5.31-11.771 7.963-19.363 7.963-7.595 0-14.050-2.653-19.366-7.963l-38.726-38.681c-5.316-5.31-7.972-11.758-7.972-19.344 0-7.583 2.656-14.034 7.972-19.341l141.81-141.644c5.313-5.31 11.768-7.963 19.363-7.963 7.591 0 14.047 2.657 19.363 7.963l244.89 244.606c5.313 5.31 7.972 11.758 7.972 19.344 0.004 7.583-2.66 14.032-7.972 19.341z" />
<glyph unicode="&#xe60a;" glyph-name="dashboardbadge-coursesurveylocked" d="M548.825 723.392c-4.203 4.072-9.063 7.291-14.581 9.656s-11.429 3.546-17.733 3.546c-6.305 0-12.217-1.182-17.733-3.546-5.518-2.364-10.379-5.648-14.581-9.853-4.204-4.203-7.488-9.064-9.853-14.581s-3.546-11.429-3.546-17.733l-0.002-40.197h91.821v40.59c0 6.305-1.247 12.217-3.742 17.733s-5.846 10.313-10.050 14.385zM22.567 932.626v-680.207h188.974l-0.070-289.045 289.727 289.045h500.234v680.207h-978.865zM682.024 457.188c0-3.414-1.182-6.305-3.547-8.669s-5.254-3.548-8.67-3.548h-301.867c-3.416 0-6.306 1.184-8.67 3.548s-3.546 5.254-3.546 8.669v181.28c0 3.414 1.182 6.305 3.546 8.669s5.254 3.546 8.67 3.546h37.437v40.197c0 15.237 2.956 29.688 8.867 43.349s13.858 25.484 23.843 35.467c9.983 9.984 21.74 17.93 35.27 23.843 13.531 5.911 27.915 8.866 43.152 8.866 15.238 0 29.688-2.955 43.349-8.866 13.662-5.912 25.483-13.858 35.467-23.843 9.984-9.983 17.932-21.806 23.842-35.467s8.867-28.112 8.867-43.349v-40.197h41.774c3.415 0 6.305-1.182 8.67-3.546s3.547-5.254 3.547-8.67v-181.279z" />
<glyph unicode="&#xe60b;" glyph-name="dashboardbadge-coursesurveycomplete" d="M23.5 932.33v-678.858h188.599l-0.070-288.471 289.152 288.471h499.242v678.858h-976.923zM746.681 672.588l-250.502-250.209c-5.44-5.44-12.041-8.149-19.813-8.149-7.762 0-14.374 2.709-19.803 8.149l-145.064 144.887c-5.44 5.429-8.16 12.030-8.16 19.782 0 7.762 2.72 14.363 8.16 19.792l39.616 39.564c5.44 5.429 12.041 8.149 19.813 8.149 7.762 0 14.363-2.72 19.803-8.149l85.635-85.833 191.083 191.166c5.44 5.429 12.051 8.139 19.813 8.139s14.374-2.709 19.813-8.139l39.606-39.574c5.44-5.429 8.16-12.030 8.16-19.782 0-7.763-2.72-14.353-8.16-19.793z" />
<glyph unicode="&#xe60c;" glyph-name="dashboardbadge-coursecertificatelocked" d="M675.641 239.202c-24.653-41.407-56.265-50.099-78.443-50.099-16.835 0-34.419 5.083-52.261 15.107-11.46 6.33-22.227 9.407-32.917 9.407-10.681 0-21.441-3.073-32.891-9.393-17.843-10.047-35.43-15.142-52.271-15.142-22.149 0-53.736 8.69-78.416 50.049-7.866 13.146-17.16 22.049-28.699 27.26v-321.252l190.573 111.353 190.573-111.353v319.573c-9.972-5.356-18.196-13.722-25.248-25.51zM863.954 639.48c19.073 33.948 11.864 60.777-21.674 80.763-6.263 3.756-11.948 7.839-17.055 12.252-3.405 2.942-6.553 6.031-9.444 9.267-1.446 1.618-2.827 3.273-4.144 4.965-6.585 8.459-11.565 17.843-14.938 28.163s-5.138 21.577-5.295 33.782c-0.12 7.289-0.909 13.909-2.368 19.858-6.324 25.779-25.243 38.951-56.904 39.322-2.435 0.034-4.833 0.133-7.194 0.296-4.721 0.326-9.293 0.909-13.716 1.749-11.056 2.101-21.18 5.808-30.377 11.119-3.679 2.125-7.209 4.506-10.592 7.144s-6.617 5.532-9.704 8.682c-3.087 3.15-6.027 6.557-8.819 10.22s-5.437 7.582-7.936 11.757c-1.112 1.864-2.254 3.617-3.409 5.319-0.261 0.385-0.522 0.769-0.785 1.145-1.144 1.636-2.306 3.209-3.491 4.688-0.167 0.209-0.339 0.4-0.507 0.606-1.080 1.321-2.179 2.57-3.294 3.762-0.259 0.277-0.516 0.562-0.777 0.833-1.227 1.27-2.474 2.464-3.742 3.579-0.265 0.233-0.535 0.45-0.802 0.677-1.152 0.978-2.32 1.897-3.505 2.749-0.211 0.152-0.418 0.317-0.63 0.465-1.323 0.922-2.671 1.752-4.035 2.518-0.322 0.181-0.647 0.352-0.972 0.524-1.352 0.718-2.719 1.384-4.111 1.952l-0.178 0.079c-1.439 0.579-2.906 1.051-4.387 1.47-0.345 0.098-0.691 0.194-1.038 0.283-1.476 0.378-2.968 0.696-4.486 0.917 0 0-0.396 0.041-0.592 0.066-1.396 0.184-2.811 0.294-4.242 0.346-0.331 0.012-0.661 0.032-0.994 0.037 0 0-0.462 0.025-0.697 0.025-1.387 0-2.794-0.070-4.214-0.192 0 0-0.519-0.067-0.777-0.093-1.417-0.143-2.851-0.349-4.3-0.612-0.488-0.089-0.979-0.186-1.471-0.288-1.416-0.294-2.846-0.644-4.292-1.051-0.322-0.091-0.64-0.162-0.964-0.259-1.747-0.52-3.518-1.13-5.309-1.814-0.442-0.169-0.891-0.363-1.336-0.542-1.412-0.568-2.837-1.185-4.276-1.853-0.523-0.243-1.045-0.482-1.571-0.738-1.855-0.902-3.724-1.858-5.624-2.925-4.243-2.373-8.489-4.449-12.734-6.228-1.592-0.667-3.185-1.293-4.777-1.877-11.148-4.087-22.302-6.131-33.456-6.131-10.749 0-21.499 1.922-32.242 5.718-1.997 0.706-3.994 1.453-5.991 2.29-4.246 1.779-8.491 3.856-12.734 6.228-1.902 1.064-3.774 2.018-5.631 2.918-0.528 0.256-1.051 0.495-1.576 0.738-1.435 0.664-2.857 1.278-4.265 1.842-0.453 0.182-0.91 0.378-1.36 0.549-1.787 0.68-3.553 1.287-5.296 1.805-0.338 0.101-0.669 0.175-1.006 0.269-1.432 0.402-2.848 0.747-4.25 1.038-0.502 0.104-1.003 0.203-1.501 0.293-1.436 0.26-2.856 0.464-4.26 0.606-0.27 0.027-0.545 0.075-0.814 0.097-1.42 0.121-2.826 0.191-4.213 0.191-0.233 0-0.459-0.022-0.691-0.025-0.335-0.005-0.667-0.025-1-0.037-1.432-0.052-2.849-0.162-4.245-0.345-0.194-0.025-0.392-0.038-0.586-0.066-1.523-0.221-3.020-0.539-4.501-0.918-0.34-0.087-0.678-0.181-1.015-0.276-1.491-0.421-2.967-0.894-4.415-1.477l-0.111-0.050c-1.417-0.575-2.808-1.253-4.184-1.983-0.314-0.167-0.628-0.332-0.94-0.506-1.373-0.77-2.728-1.604-4.060-2.531-0.201-0.14-0.396-0.296-0.596-0.439-1.201-0.861-2.384-1.792-3.551-2.782-0.257-0.218-0.516-0.426-0.771-0.65-1.275-1.12-2.529-2.32-3.762-3.596-0.253-0.262-0.502-0.539-0.753-0.807-1.122-1.198-2.228-2.456-3.316-3.785-0.165-0.202-0.333-0.389-0.497-0.594-1.187-1.48-2.349-3.054-3.494-4.691-0.263-0.375-0.523-0.759-0.784-1.143-1.155-1.702-2.297-3.455-3.41-5.32-4.985-8.361-10.563-15.696-16.734-22.003-3.086-3.153-6.32-6.050-9.702-8.689-5.073-3.959-10.48-7.339-16.221-10.14-3.827-1.867-7.802-3.477-11.926-4.829s-8.396-2.446-12.816-3.283c-6.631-1.255-13.594-1.93-20.892-2.024-9.719-0.114-18.243-1.44-25.571-3.972-3.664-1.266-7.029-2.834-10.094-4.703s-5.832-4.038-8.298-6.508c-1.85-1.852-3.532-3.873-5.045-6.063s-2.858-4.548-4.034-7.074c-0.784-1.684-1.493-3.443-2.127-5.277s-1.193-3.742-1.678-5.725c-1.453-5.949-2.231-12.569-2.333-19.858-0.15-9.154-1.194-17.772-3.136-25.861-0.647-2.696-1.394-5.334-2.241-7.912-1.355-4.126-2.965-8.102-4.831-11.93-1.866-3.827-3.988-7.506-6.365-11.037-3.567-5.296-7.71-10.26-12.43-14.895-6.294-6.18-13.614-11.775-21.964-16.794-10.466-6.245-18.379-13.155-23.727-20.741-0.802-1.138-1.547-2.291-2.234-3.459-1.374-2.337-2.516-4.735-3.428-7.194-0.456-1.23-0.854-2.474-1.194-3.735-1.814-6.722-1.982-13.881-0.499-21.485s4.617-15.651 9.408-24.15c19.073-34.039 19.073-67.987 0-101.934-3.593-6.382-6.256-12.515-7.99-18.397-1.156-3.922-1.899-7.733-2.23-11.433-0.331-3.701-0.249-7.29 0.245-10.77 0.37-2.61 0.972-5.157 1.806-7.643 0.833-2.486 1.898-4.91 3.195-7.272 1.729-3.149 3.868-6.189 6.419-9.119s5.512-5.75 8.884-8.461c3.372-2.711 7.154-5.313 11.346-7.805 2.087-1.243 4.111-2.524 6.070-3.841 5.878-3.953 11.178-8.239 15.901-12.859 1.574-1.54 3.085-3.117 4.531-4.731 7.954-8.878 13.968-18.877 18.045-29.997s6.217-23.363 6.42-36.726c0.068-4.877 0.437-9.454 1.106-13.733 0.334-2.139 0.744-4.204 1.228-6.193 0.968-3.979 2.237-7.658 3.805-11.037 2.352-5.068 5.379-9.461 9.079-13.177 2.467-2.477 5.233-4.652 8.298-6.526 4.598-2.811 9.87-4.942 15.814-6.392s12.561-2.219 19.85-2.305c26.79-0.314 49.051-8.499 66.841-24.438 4.852-4.347 9.372-9.271 13.56-14.768 2.792-3.665 5.437-7.586 7.936-11.761l0.005-0.008c1.111-1.861 2.25-3.611 3.404-5.31 0.261-0.385 0.522-0.769 0.785-1.145 1.144-1.635 2.305-3.207 3.49-4.686 0.169-0.21 0.342-0.404 0.342-0.404 1.251-1.529 2.352-2.781 3.468-3.974 0.254-0.271 0.506-0.552 0.762-0.817 1.23-1.273 2.48-2.469 3.751-3.587 0.261-0.23 0.527-0.444 0.79-0.667 1.164-0.988 2.344-1.917 3.541-2.777 0.198-0.142 0.392-0.298 0.591-0.437 1.328-0.926 2.682-1.758 4.051-2.527 0.316-0.177 0.634-0.345 0.953-0.514 1.389-0.738 2.792-1.423 4.222-2.002l0.059-0.027c1.447-0.583 2.923-1.055 4.413-1.475 0.339-0.095 0.677-0.191 1.018-0.278 1.477-0.378 2.971-0.693 4.49-0.913 0.207-0.030 0.418-0.043 0.626-0.070 1.391-0.181 2.8-0.29 4.226-0.34 0.324-0.011 0.647-0.031 0.973-0.036 0.219-0.003 0.434-0.024 0.654-0.024 1.398 0 2.815 0.072 4.246 0.196 0.29 0.025 0.586 0.076 0.877 0.106 1.385 0.144 2.785 0.346 4.201 0.605 0.5 0.091 1.001 0.19 1.505 0.296 1.408 0.295 2.83 0.646 4.268 1.053 0.328 0.093 0.65 0.166 0.979 0.264 1.742 0.522 3.508 1.135 5.294 1.82 0.455 0.175 0.917 0.375 1.374 0.56 1.402 0.567 2.817 1.183 4.246 1.85 0.527 0.246 1.052 0.488 1.583 0.747 1.855 0.907 3.723 1.867 5.622 2.939 12.73 7.050 25.473 11.456 38.22 13.218 4.249 0.588 8.498 0.881 12.747 0.881 16.997 0 33.993-4.7 50.967-14.099 1.898-1.069 3.766-2.026 5.62-2.93 0.534-0.26 1.062-0.503 1.592-0.75 1.423-0.662 2.832-1.274 4.228-1.838 0.464-0.187 0.932-0.389 1.393-0.566 1.783-0.682 3.547-1.293 5.287-1.814 0.334-0.1 0.662-0.173 0.995-0.268 1.433-0.405 2.851-0.753 4.255-1.048 0.506-0.106 1.010-0.205 1.512-0.297 1.412-0.258 2.81-0.46 4.192-0.603 0.295-0.031 0.595-0.081 0.888-0.107 1.432-0.124 2.85-0.196 4.25-0.196 0.219 0 0.432 0.021 0.432 0.021 0.545 0.008 0.868 0.028 1.193 0.039 1.425 0.050 2.835 0.158 4.226 0.339 0.208 0.027 0.42 0.040 0.42 0.040 1.73 0.25 3.227 0.565 4.708 0.943 0.335 0.086 0.668 0.179 1 0.272 1.496 0.421 2.978 0.894 4.43 1.478l0.029 0.013c1.445 0.582 2.86 1.274 4.262 2.018 0.31 0.165 0.621 0.329 0.929 0.501 1.377 0.771 2.737 1.607 4.072 2.537 0.187 0.13 0.37 0.277 0.556 0.411 1.211 0.868 2.404 1.806 3.58 2.805 0.256 0.217 0.514 0.425 0.768 0.648 1.275 1.121 2.529 2.321 3.763 3.598 0.25 0.258 0.495 0.532 0.743 0.797 1.122 1.199 2.228 2.458 3.315 3.788 0.166 0.203 0.335 0.392 0.5 0.598 1.186 1.481 2.347 3.056 3.492 4.694 0.26 0.372 0.517 0.752 0.774 1.131 1.155 1.703 2.296 3.458 3.407 5.325 19.985 33.4 49.37 50.511 88.337 50.967s58.633 20.305 59.272 59.363c0.342 24.297 7.083 44.887 20.245 61.77 2.632 3.376 5.522 6.605 8.668 9.685s6.549 6.012 10.21 8.795 7.578 5.418 11.753 7.905c4.186 2.498 7.963 5.104 11.329 7.818s6.323 5.536 8.869 8.467c2.546 2.931 4.682 5.97 6.407 9.119 8.626 15.745 6.99 34.221-4.931 55.495-18.986 33.955-18.986 67.902-0.004 101.941zM472.332 614.458h87.991v38.897c0 6.042-1.196 11.707-3.586 16.994s-5.602 9.882-9.63 13.784c-4.027 3.902-8.685 6.986-13.973 9.252s-10.952 3.399-16.994 3.399c-6.042 0-11.707-1.133-16.994-3.399s-9.945-5.413-13.973-9.441c-4.028-4.028-7.175-8.686-9.441-13.973s-3.399-10.952-3.399-16.994l-0.001-38.519zM663.041 614.458c3.273 0 6.042-1.133 8.308-3.399s3.399-5.035 3.399-8.308v-173.716c0-3.273-1.133-6.042-3.399-8.308s-5.035-3.399-8.308-3.399h-289.273c-3.273 0-6.042 1.133-8.308 3.399s-3.399 5.035-3.399 8.308v173.717c0 3.273 1.133 6.042 3.399 8.308s5.035 3.399 8.308 3.399h35.876v38.519c0 14.602 2.832 28.449 8.497 41.541s13.28 24.421 22.847 33.988 20.833 17.183 33.799 22.847c12.966 5.665 26.75 8.497 41.352 8.497s28.449-2.832 41.541-8.497c13.092-5.665 24.42-13.28 33.987-22.847s17.184-20.896 22.847-33.988c5.663-13.092 8.498-26.938 8.498-41.541v-38.52h40.029z" />
<glyph unicode="&#xe60d;" glyph-name="ui-form-cb1-inner1-on" d="M819 141.258c0-0.55-0.45-1-1-1h-610.742c-0.55 0-1 0.45-1 1v610.742c0 0.55 0.45 1 1 1h610.742c0.55 0 1-0.45 1-1v-610.742z" />
<glyph unicode="&#xe60e;" glyph-name="dashboardbadge-coursecertificateavailable" d="M674.812 239.123c-24.582-41.372-56.104-50.056-78.219-50.056-16.787 0-34.32 5.079-52.112 15.094-11.427 6.325-22.164 9.399-32.823 9.399-10.651 0-21.38-3.070-32.797-9.385-17.792-10.038-35.329-15.129-52.122-15.129-22.086 0-53.583 8.682-78.193 50.006-7.844 13.135-17.111 22.030-28.617 27.237v-320.979l190.029 111.259 190.029-111.259v319.3c-9.942-5.351-18.142-13.71-25.175-25.487zM862.588 639.061c19.018 33.919 11.83 60.726-21.612 80.694-6.245 3.753-11.914 7.832-17.006 12.242-3.395 2.939-6.534 6.026-9.417 9.259-1.442 1.617-2.819 3.27-4.132 4.961-6.567 8.452-11.533 17.827-14.895 28.139-3.363 10.311-5.123 21.558-5.28 33.754-0.119 7.283-0.906 13.898-2.361 19.841-6.306 25.757-25.171 38.918-56.741 39.288-2.428 0.034-4.82 0.133-7.173 0.295-4.708 0.326-9.266 0.908-13.676 1.747-11.025 2.099-21.12 5.803-30.29 11.11-3.668 2.123-7.189 4.502-10.562 7.138s-6.598 5.527-9.677 8.675c-3.078 3.148-6.009 6.552-8.794 10.212s-5.422 7.576-7.913 11.747c-1.109 1.863-2.248 3.614-3.399 5.314-0.26 0.384-0.52 0.768-0.783 1.144-1.141 1.634-2.299 3.206-3.481 4.684-0.167 0.209-0.338 0.4-0.506 0.605-1.077 1.32-2.173 2.568-3.284 3.759-0.258 0.277-0.515 0.562-0.775 0.832-1.224 1.269-2.467 2.462-3.731 3.576-0.265 0.233-0.533 0.45-0.799 0.676-1.149 0.977-2.313 1.895-3.495 2.747-0.21 0.151-0.417 0.317-0.628 0.465-1.32 0.921-2.663 1.751-4.024 2.516-0.321 0.181-0.645 0.352-0.969 0.524-1.349 0.718-2.711 1.383-4.099 1.95l-0.177 0.079c-1.435 0.579-2.898 1.050-4.375 1.469-0.344 0.098-0.689 0.194-1.036 0.283-1.472 0.377-2.96 0.695-4.473 0.916 0 0-0.394 0.040-0.59 0.066-1.392 0.184-2.803 0.294-4.23 0.346-0.33 0.012-0.659 0.032-0.991 0.037 0 0-0.461 0.025-0.695 0.025-1.383 0-2.786-0.070-4.202-0.191 0 0-0.518-0.067-0.774-0.093-1.413-0.143-2.843-0.349-4.288-0.612-0.487-0.089-0.976-0.186-1.467-0.288-1.412-0.294-2.838-0.643-4.28-1.050-0.322-0.091-0.638-0.162-0.961-0.259-1.742-0.52-3.508-1.129-5.294-1.812-0.441-0.169-0.889-0.363-1.333-0.541-1.408-0.567-2.829-1.184-4.264-1.851-0.521-0.243-1.042-0.482-1.567-0.737-1.85-0.902-3.714-1.856-5.608-2.923-4.231-2.371-8.464-4.445-12.698-6.223-1.588-0.667-3.176-1.292-4.764-1.875-11.116-4.084-22.238-6.126-33.36-6.126-10.719 0-21.437 1.92-32.15 5.713-1.991 0.705-3.983 1.452-5.973 2.288-4.234 1.778-8.467 3.852-12.698 6.223-1.896 1.064-3.763 2.016-5.615 2.916-0.527 0.256-1.048 0.495-1.571 0.737-1.431 0.663-2.848 1.277-4.253 1.841-0.452 0.181-0.907 0.378-1.356 0.549-1.782 0.679-3.543 1.286-5.281 1.803-0.337 0.1-0.667 0.175-1.003 0.269-1.428 0.401-2.84 0.747-4.238 1.038-0.501 0.104-1 0.203-1.496 0.293-1.431 0.259-2.848 0.463-4.248 0.605-0.269 0.027-0.544 0.075-0.812 0.097-1.416 0.121-2.818 0.191-4.201 0.191-0.232 0-0.458-0.022-0.689-0.025-0.334-0.005-0.665-0.025-0.997-0.037-1.428-0.052-2.84-0.161-4.233-0.345-0.194-0.025-0.391-0.038-0.584-0.066-1.519-0.221-3.012-0.539-4.488-0.917-0.339-0.087-0.676-0.181-1.012-0.276-1.486-0.42-2.959-0.893-4.403-1.475l-0.111-0.050c-1.413-0.574-2.8-1.252-4.172-1.982-0.313-0.166-0.626-0.331-0.937-0.506-1.369-0.769-2.721-1.603-4.048-2.528-0.2-0.14-0.395-0.296-0.594-0.439-1.198-0.861-2.377-1.79-3.54-2.78-0.256-0.218-0.514-0.426-0.769-0.649-1.271-1.119-2.521-2.318-3.751-3.593-0.252-0.262-0.501-0.538-0.751-0.806-1.119-1.197-2.222-2.454-3.306-3.782-0.164-0.201-0.332-0.389-0.496-0.593-1.183-1.478-2.342-3.051-3.484-4.687-0.262-0.375-0.522-0.758-0.781-1.142-1.152-1.7-2.291-3.452-3.4-5.315-4.971-8.354-10.533-15.683-16.687-21.984-3.077-3.151-6.302-6.044-9.674-8.681-5.059-3.955-10.45-7.333-16.175-10.131-3.816-1.866-7.78-3.474-11.892-4.825s-8.372-2.444-12.779-3.28c-6.612-1.254-13.556-1.928-20.833-2.022-9.691-0.114-18.191-1.439-25.498-3.969-3.653-1.265-7.009-2.832-10.065-4.699-3.057-1.867-5.815-4.035-8.275-6.502-1.845-1.851-3.522-3.87-5.030-6.058s-2.849-4.544-4.022-7.068c-0.782-1.683-1.489-3.44-2.121-5.273s-1.19-3.739-1.673-5.72c-1.449-5.944-2.224-12.558-2.327-19.841-0.149-9.146-1.191-17.757-3.127-25.839-0.646-2.694-1.39-5.329-2.234-7.906-1.351-4.122-2.956-8.095-4.817-11.92-1.86-3.824-3.976-7.499-6.347-11.027-3.556-5.292-7.688-10.251-12.395-14.882-6.276-6.174-13.575-11.765-21.902-16.78-10.436-6.24-18.326-13.144-23.66-20.723-0.8-1.137-1.542-2.289-2.227-3.456-1.37-2.335-2.509-4.731-3.418-7.188-0.454-1.228-0.851-2.472-1.19-3.732-1.809-6.716-1.976-13.869-0.498-21.466 1.479-7.597 4.604-15.638 9.381-24.129 19.018-34.010 19.018-67.929 0-101.848-3.583-6.377-6.238-12.504-7.967-18.382-1.153-3.918-1.894-7.726-2.223-11.423-0.33-3.697-0.248-7.284 0.244-10.761 0.369-2.607 0.969-5.153 1.8-7.637s1.893-4.906 3.186-7.266c1.724-3.147 3.857-6.184 6.4-9.111 2.543-2.928 5.496-5.745 8.858-8.454s7.134-5.308 11.314-7.798c2.082-1.242 4.099-2.522 6.053-3.838 5.861-3.949 11.146-8.232 15.855-12.848 1.57-1.539 3.076-3.115 4.518-4.727 7.931-8.87 13.928-18.861 17.994-29.972 4.065-11.111 6.199-23.343 6.402-36.695 0.068-4.872 0.436-9.446 1.102-13.721 0.333-2.137 0.741-4.2 1.224-6.188 0.966-3.976 2.231-7.652 3.794-11.028 2.346-5.064 5.363-9.453 9.053-13.165 2.46-2.475 5.218-4.648 8.275-6.521 4.585-2.808 9.842-4.938 15.769-6.387s12.525-2.217 19.794-2.303c26.713-0.314 48.911-8.492 66.651-24.417 4.838-4.343 9.345-9.263 13.521-14.756 2.784-3.662 5.422-7.579 7.913-11.751l0.005-0.008c1.108-1.859 2.244-3.608 3.394-5.305 0.26-0.384 0.52-0.768 0.783-1.144 1.141-1.634 2.298-3.205 3.48-4.682 0.168-0.21 0.341-0.403 0.341-0.403 1.248-1.528 2.345-2.779 3.458-3.971 0.253-0.271 0.504-0.551 0.759-0.816 1.226-1.272 2.473-2.467 3.74-3.584 0.26-0.23 0.525-0.443 0.788-0.667 1.161-0.987 2.337-1.915 3.531-2.774 0.197-0.142 0.391-0.298 0.589-0.436 1.325-0.925 2.674-1.757 4.040-2.525 0.315-0.177 0.633-0.345 0.95-0.514 1.385-0.737 2.784-1.422 4.21-2l0.059-0.027c1.443-0.582 2.915-1.054 4.401-1.474 0.338-0.095 0.675-0.19 1.015-0.278 1.473-0.377 2.963-0.692 4.478-0.912 0.206-0.030 0.417-0.043 0.624-0.070 1.387-0.181 2.792-0.29 4.214-0.34 0.323-0.011 0.645-0.031 0.97-0.036 0.219-0.003 0.433-0.024 0.652-0.024 1.394 0 2.807 0.072 4.234 0.196 0.289 0.025 0.584 0.075 0.875 0.106 1.381 0.143 2.777 0.346 4.189 0.604 0.498 0.091 0.998 0.19 1.5 0.296 1.404 0.295 2.822 0.645 4.256 1.052 0.327 0.093 0.648 0.165 0.976 0.264 1.737 0.522 3.498 1.134 5.279 1.819 0.454 0.174 0.914 0.374 1.37 0.559 1.398 0.567 2.809 1.182 4.234 1.848 0.525 0.246 1.049 0.487 1.578 0.746 1.849 0.906 3.713 1.865 5.606 2.936 12.694 7.044 25.401 11.446 38.111 13.207 4.237 0.587 8.474 0.88 12.711 0.88 16.948 0 33.896-4.696 50.822-14.087 1.892-1.068 3.755-2.024 5.604-2.928 0.532-0.26 1.059-0.503 1.588-0.749 1.419-0.662 2.824-1.273 4.216-1.836 0.462-0.187 0.929-0.389 1.389-0.565 1.778-0.682 3.537-1.292 5.272-1.812 0.333-0.1 0.66-0.173 0.992-0.267 1.429-0.405 2.843-0.753 4.242-1.047 0.504-0.106 1.007-0.205 1.508-0.297 1.408-0.257 2.802-0.459 4.18-0.602 0.294-0.031 0.593-0.081 0.885-0.107 1.428-0.124 2.842-0.196 4.237-0.196 0.218 0 0.431 0.021 0.431 0.021 0.543 0.008 0.865 0.028 1.189 0.039 1.421 0.050 2.827 0.158 4.214 0.339 0.207 0.027 0.419 0.040 0.419 0.040 1.725 0.25 3.218 0.565 4.694 0.943 0.334 0.085 0.666 0.179 0.998 0.272 1.492 0.421 2.969 0.893 4.418 1.477l0.029 0.013c1.441 0.582 2.852 1.273 4.25 2.016 0.309 0.165 0.619 0.328 0.926 0.501 1.373 0.771 2.729 1.606 4.060 2.535 0.187 0.13 0.369 0.277 0.555 0.41 1.208 0.867 2.397 1.805 3.57 2.803 0.255 0.217 0.512 0.425 0.766 0.648 1.271 1.12 2.522 2.319 3.752 3.595 0.249 0.258 0.494 0.532 0.741 0.797 1.119 1.198 2.221 2.456 3.305 3.784 0.165 0.203 0.334 0.392 0.499 0.597 1.183 1.479 2.341 3.053 3.482 4.69 0.259 0.371 0.515 0.751 0.772 1.13 1.151 1.702 2.289 3.456 3.397 5.321 19.928 33.372 49.229 50.468 88.085 50.924s58.466 20.287 59.103 59.312c0.341 24.277 7.063 44.849 20.187 61.717 2.625 3.374 5.506 6.599 8.643 9.676s6.531 6.006 10.181 8.787c3.65 2.781 7.557 5.414 11.72 7.898 4.174 2.496 7.94 5.1 11.297 7.811 3.357 2.712 6.304 5.532 8.843 8.46s4.668 5.965 6.388 9.112c8.601 15.731 6.97 34.192-4.917 55.448-18.934 33.919-18.934 67.838-0.007 101.848zM724.084 631.183l-236.302-236.503c-5.13-5.131-11.359-7.699-18.684-7.699-7.328 0-13.557 2.565-18.684 7.699l-136.837 136.951c-5.129 5.131-7.693 11.368-7.693 18.7 0 7.335 2.563 13.569 7.693 18.703l37.367 37.4c5.13 5.134 11.359 7.699 18.687 7.699 7.325 0 13.554-2.565 18.684-7.699l80.782-81.128 180.248 180.68c5.126 5.134 11.358 7.699 18.687 7.699 7.325 0 13.557-2.565 18.684-7.699l37.367-37.4c5.126-5.134 7.696-11.368 7.693-18.7 0-7.335-2.566-13.569-7.692-18.703z" />
<glyph unicode="&#xe60f;" glyph-name="ui-status-partial" d="M511.88 836.011c19.728 0 38.122-10.609 47.926-27.746l376.617-652.303c5.919-8.265 9.29-19.233 9.305-30.635 0-30.496-24.81-55.337-55.288-55.337h-756.887c-19.713 0-38.061 10.611-47.926 27.716-9.848 17.056-9.848 38.232 0 55.288l378.328 655.318c9.864 17.073 28.21 27.699 47.925 27.699zM511.88 905.276c-44.348 0-85.691-23.875-107.899-62.311l-378.34-655.341c-22.18-38.412-22.18-86.137 0.002-124.553 22.172-38.446 63.528-62.346 107.909-62.346h756.888c68.679 0 124.553 55.895 124.553 124.602-0.032 24.328-7.062 48.099-19.872 67.498l-375.33 650.073c-21.96 38.386-63.36 62.378-107.911 62.378v0zM462.351 295.856c-13.503-13.503-20.255-30.017-20.255-49.634 0-19.571 6.752-36.13 20.255-49.634s30.040-20.255 49.634-20.255c19.593 0 36.13 6.752 49.634 20.255s20.255 30.063 20.255 49.634c0 19.616-6.752 36.13-20.255 49.634s-30.040 20.255-49.634 20.255c-19.594 0-36.131-6.752-49.634-20.255zM577.577 603.406c0 16.569-13.431 30-30 30h-71.993c-16.569 0-30-13.431-30-30v-224.986c0-16.569 13.431-30 30-30h71.993c16.569 0 30 13.431 30 30v224.986z" />
<glyph unicode="&#xe610;" glyph-name="ui-status-incorrect" d="M633.763 871.512c10.674 0 25.584-6.176 33.132-13.723l254.897-254.897c7.547-7.547 13.721-22.455 13.721-33.129v-243.528c0-10.672-6.173-25.58-13.721-33.127l-254.897-254.899c-7.547-7.547-22.457-13.721-33.132-13.721h-243.526c-10.674 0-25.58 6.173-33.127 13.721l-254.901 254.899c-7.547 7.547-13.721 22.455-13.721 33.127v243.528c0 10.674 6.173 25.582 13.721 33.129l254.901 254.897c7.547 7.547 22.453 13.723 33.127 13.723h243.526zM633.763 949.137h-243.526c-31.317 0-65.866-14.311-88.015-36.458l-254.902-254.896c-22.149-22.147-36.458-56.696-36.458-88.020v-243.528c0-31.322 14.308-65.87 36.458-88.018l254.901-254.899c22.145-22.145 56.693-36.455 88.015-36.455h243.526c31.327 0 65.875 14.311 88.020 36.458l254.898 254.899c22.149 22.145 36.458 56.693 36.458 88.015v243.528c0 31.324-14.308 65.873-36.458 88.020l-254.897 254.894c-22.145 22.15-56.698 36.46-88.020 36.46v0zM614.14 448l105.405 105.405c11.718 11.718 9.926 32.51-4.003 46.439l-51.698 51.698c-13.929 13.929-34.721 15.721-46.439 4.003l-105.405-105.405-105.405 105.405c-11.718 11.718-32.51 9.926-46.439-4.003l-51.698-51.698c-13.929-13.929-15.721-34.721-4.003-46.439l105.405-105.405-105.405-105.405c-11.718-11.718-9.926-32.51 4.003-46.439l51.698-51.698c13.929-13.929 34.721-15.721 46.439-4.003l105.405 105.405 105.405-105.405c11.718-11.718 32.51-9.926 46.439 4.003l51.698 51.698c13.929 13.929 15.721 34.721 4.003 46.439l-105.405 105.405z" />
<glyph unicode="&#xe611;" glyph-name="ui-status-correct" d="M511.998 874.65c236.142 0 427.572-191.21 427.572-427.078 0-235.87-191.429-427.080-427.572-427.080-236.138 0-427.567 191.21-427.567 427.080 0 235.868 191.429 427.078 427.567 427.078zM511.998 951.579c-277.892 0-503.973-226.097-503.973-504.007 0-277.913 226.081-504.009 503.973-504.009 277.894 0 503.977 226.097 503.977 504.009 0 277.91-226.083 504.007-503.977 504.007v0zM769.553 566.045l-46.183 46.131c-6.336 6.333-14.038 9.497-23.092 9.497-9.057 0-16.76-3.164-23.096-9.497l-222.773-222.859-99.84 100.067c-6.34 6.333-14.038 9.497-23.092 9.497-9.057 0-16.756-3.164-23.096-9.497l-46.183-46.131c-6.34-6.333-9.508-14.022-9.508-23.069 0-9.043 3.168-16.737 9.508-23.065l169.12-168.922c6.336-6.333 14.034-9.497 23.092-9.497 9.053 0 16.752 3.168 23.092 9.497l292.051 291.713c6.336 6.333 9.508 14.022 9.508 23.069 0.003 9.044-3.173 16.734-9.508 23.066z" />
<glyph unicode="&#xe612;" glyph-name="ui-launcher-video" d="M126.392 947.84c8.068 4.006 17.208 2.877 24.035-2.37l751.073-479.746c5.304-4.401 8.689-10.776 8.689-17.66 0-6.77-3.442-13.372-8.689-17.716l-751.129-479.688c-3.949-3.216-9.14-4.909-14.105-4.909l-9.93 2.257c-7.673 3.667-12.525 11.679-12.525 20.368v959.209c0 8.576 4.852 16.644 12.581 20.255z" />
<glyph unicode="&#xe613;" glyph-name="badge-dashboard" d="M509.674 106.464c-121.62-0.002-243.241-0.076-364.861 0.023-84.955 0.068-135.218 51.781-137.013 136.687-2.015 95.292 8.311 187.658 50.881 274.547 97.156 198.306 312.615 310.704 531.383 276.765 213.555-33.13 383.638-200.532 417.891-415.824 8.119-51.033 8.075-103.973 6.209-155.835-2.426-67.412-58.51-116.052-128.655-116.258-125.278-0.367-250.557-0.103-375.835-0.105zM511.614 172.024c57.637 0 115.275-0.032 172.912 0.009 63.126 0.045 126.271-0.774 189.37 0.556 45.108 0.951 70.926 24.513 71.292 66.268 0.383 43.789 1.93 88.569-5.995 131.252-31.498 169.625-128.856 288.074-293.185 341.455-162.75 52.867-311.189 17.598-436.153-100.462-100.077-94.549-136.669-214.864-132.73-350.248 1.969-67.666 20.928-88.629 88.665-88.758 115.275-0.221 230.55-0.061 345.824-0.072zM512.17 203.514c-47.915-0.161-86.577 28.212-100.507 73.759-13.229 43.255 3.588 88.898 41.142 115.983 14.581 10.517 28.651 22.496 40.441 36.002 57.721 66.123 114.587 132.992 171.775 199.58 10.249 11.933 20.565 25.958 38.734 14.859 17.501-10.691 11.241-26.52 6.241-41.556-26.491-79.661-53.432-159.179-78.998-239.137-7.402-23.149-12.253-47.374-15.687-71.475-7.094-49.793-50.688-87.839-103.141-88.015zM557.171 307.416c-0.325 26.376-21.211 46.318-47.417 45.273-25.033-0.999-43.843-20.948-43.671-46.315 0.178-26.317 21.091-46.25 47.436-45.214 25.195 0.99 43.964 20.879 43.652 46.256zM224.522 322.615c0.23-22.91-19.958-44.034-43.149-45.148-23.556-1.131-46.565 20.791-46.742 44.533-0.17 22.812 20.224 43.849 43.405 44.773 24.426 0.975 46.242-19.749 46.486-44.158zM842.308 277.429c-24.186 0.881-45.141 23.768-43.494 47.505 1.627 23.454 22.627 42.562 45.997 41.854 24.288-0.736 45.376-23.479 43.679-47.106-1.654-23.010-23.584-43.075-46.182-42.253zM346.806 652.569c25.569-0.655 43.949-20.509 42.797-46.23-1.089-24.33-19.973-41.637-44.894-41.146-26.18 0.516-44.082 19.784-42.737 45.998 1.252 24.413 20.315 42.006 44.834 41.378zM223.256 531.713c25.193 0.538 45.551-19.4 45.345-44.412-0.2-24.183-18.957-42.847-43.52-43.305-24.331-0.453-44.455 17.74-45.85 41.449-1.42 24.128 19.141 45.736 44.025 46.268zM844.119 486.207c-0.922-24.54-22.63-43.629-47.913-42.132-24.417 1.446-42.376 20.997-41.519 45.2 0.882 24.903 22.132 43.948 47.285 42.378 23.504-1.467 43.010-22.5 42.147-45.446zM555.083 653.749c0.346-25.522-16.203-43.188-41.345-44.135-26.64-1.003-45.257 16.412-45.582 42.638-0.326 26.33 17.903 44.68 44.085 44.378 24.96-0.287 42.503-17.846 42.842-42.881z" />
<glyph unicode="&#xe614;" glyph-name="nav-menu" d="M354.895 817.939h573.226v-106.647h-573.226v106.647zM95.88 849.227h169.239v-169.239h-169.239v169.239zM354.895 497.999h573.226v-106.647h-573.226v106.647zM95.88 529.287h169.239v-169.239h-169.239v169.239zM354.895 184.725h573.226v-106.647h-573.226v106.647zM95.88 216.012h169.239v-169.239h-169.239v169.239z" />
<glyph unicode="&#xe615;" glyph-name="nav-help" d="M315.918-15.18c255.783-108.283 550.979 11.315 659.261 267.098 108.283 255.783-11.315 550.979-267.098 659.261s-550.978-11.315-659.261-267.097 11.316-550.979 267.098-659.262zM80.729 456.232l143.712-14.754c0.772-34.464 7.764-68.634 21.118-101.597 13.355-32.963 32.119-62.364 55.553-87.646l-92.916-110.623c-40.897 40.477-73.369 89.336-95.754 144.166-22.21 55.243-32.903 112.925-31.713 170.454zM596.035 646.506c109.592-46.395 160.865-172.949 114.471-282.541s-172.949-160.865-282.541-114.471c-109.592 46.395-160.865 172.949-114.471 282.541s172.949 160.865 282.541 114.471zM673.928 48.323c-55.037-22.298-112.632-32.784-170.16-31.594l14.754 143.712c34.464 0.772 68.634 7.763 101.597 21.118s62.364 32.119 87.646 55.553l110.623-92.916c-40.771-41.016-89.63-73.488-144.46-95.873zM943.271 439.768l-143.712 14.754c-0.772 34.464-7.764 68.634-21.118 101.597s-32.119 62.364-55.553 87.646l92.916 110.623c40.897-40.477 73.369-89.336 95.754-144.166 22.21-55.243 32.903-112.925 31.713-170.454zM350.072 847.677c55.037 22.298 112.632 32.784 170.16 31.594l-14.754-143.712c-34.464-0.772-68.634-7.764-101.597-21.118s-62.364-32.119-87.646-55.553l-110.623 92.916c40.771 41.016 89.63 73.488 144.46 95.873z" />
<glyph unicode="&#xe616;" glyph-name="ui-launcher-audio" d="M506.016 869.389c0-45.368 0-788 0-837.867 0-49.667-57.764-1.566-57.764-1.566l-314.906 232.346c0 0-89.534 3.451-124.141 10.855l-0.698 346.762c34.606 8.423 124.838 11.488 124.838 11.488l321.903 238.903c0 0 50.768 38.082 50.768-0.921zM848.901 846.574l-51.319-51.104c89.32-89.387 144.545-212.502 144.545-348.472 0-136.006-55.297-259.085-144.545-348.472l51.319-51.068c102.886 102.278 166.493 243.546 166.493 399.576s-63.606 297.298-166.493 399.54zM749.602 745.568l-50.218-49.973c63.607-63.853 102.922-151.616 102.922-248.561s-39.315-184.708-102.922-248.561l50.218-49.938c76.428 76.602 123.734 182.023 123.734 298.499s-47.306 221.896-123.734 298.534zM649.166 645.656l-50.218-49.973c37.859-38.213 61.298-90.694 61.298-148.649s-23.44-110.401-61.405-148.684l50.218-49.938c50.822 50.998 82.217 121.172 82.217 198.622s-31.395 147.625-82.11 198.622z" />
<glyph unicode="&#xe617;" glyph-name="nav-about" d="M1007.626 761.305c-4.933 4.975-11.681 7.761-18.683 7.761h-657.581v-2.727l-33.667 82.137-289.647 0.222v-787.568h1007.080v49.638h0.034l0.246 631.792c-0.021 7.045-2.767 13.77-7.782 18.745zM862.337 716.097h100.062l-0.039-61.425h-585.233l-25.19 61.425h510.4zM131.255 130.837h-53.038v664.861l7.167-0.006v-0.034l176.773-0.129 79.452-193.807h603.871v-470.886h-814.225z" />
<glyph unicode="&#xe618;" glyph-name="global-pageindicator-minilecture" d="M640.404 542.932c-2.121-12.603-9.845-21.672-17.534-21.232-16.717-61.416-66.871-106.784-107.759-108.633-44.877 0.996-89.065 47.18-106.126 108.941-0.29-0.074-0.472-0.382-0.726-0.419-8.051-1.325-16.3 8.268-18.44 21.343-2.23 13.144 2.411 24.878 10.371 26.256 0.58 0.090 1.143-0.254 1.741-0.292-3.572 95.118 52.547 138.711 115.229 139.002 60.797-1.563 109.047-37.354 111.35-138.965 0.49 0 1.016 0.323 1.524 0.254 7.958-1.377 12.601-13.074 10.37-26.255zM1004.561 686.073v-473.965c0-44.88-36.517-81.407-81.407-81.407h-810.46c-44.891 0-81.407 36.527-81.407 81.407v473.965c0 44.88 36.517 81.407 81.407 81.407h810.46c44.89 0.001 81.407-36.527 81.407-81.407zM971.998 686.073c0 26.924-21.91 48.844-48.844 48.844h-810.46c-26.934 0-48.844-21.921-48.844-48.844v-473.965c0-26.924 21.91-48.844 48.844-48.844h144.685c1.397 47.7 25.013 167.977 38.176 176.404 9.205 5.888 54.276 19.165 83.549 27.427-13.691-43.672-23.939-109.434-24.441-112.64-0.488-3.201 0.413-6.466 2.48-8.936 2.056-2.443 5.077-3.869 8.247-3.869h38.891l11.584-78.386h21.955l-13.463 91.106c-0.806 5.427-5.364 9.429-10.738 9.429h-35.393c4.329 25.238 14.803 81.354 26.615 110.838-0.013-0.005-0.053-0.016-0.068-0.021-0.158-0.042-0.564-0.154-0.774-0.212 0.273 0.721 0.543 1.51 0.822 2.152 1.909 4.388 3.86 8.056 5.81 11.416-0.844-1.733-1.715-3.169-2.54-5.067 16.631 38.255 37.697 41.027 37.697 41.027s0.555-11.644 1.109-29.939c-18.294-16.631-11.088-34.922-11.088-34.922l61.693-195.807h35.218l61.693 195.807c0 0 7.207 18.29-11.088 34.922 0.554 18.295 1.109 29.939 1.109 29.939s21.066-2.772 37.697-41.027c-0.826 1.897-1.696 3.334-2.54 5.067 1.95-3.36 3.901-7.028 5.81-11.416 0.278-0.641 0.549-1.431 0.821-2.152-0.209 0.058-0.616 0.17-0.774 0.212-0.015 0.005-0.054 0.016-0.068 0.021 11.812-29.484 22.286-85.6 26.615-110.838h-35.393c-5.374 0-9.932-4.001-10.738-9.429l-13.463-91.106h21.955l11.584 78.386h38.891c3.169 0 6.19 1.426 8.247 3.869 2.067 2.47 2.968 5.735 2.48 8.936-0.502 3.206-10.75 68.968-24.441 112.64 29.273-8.263 74.344-21.539 83.549-27.427 13.162-8.427 36.779-128.704 38.176-176.404h150.308c26.934 0 48.844 21.921 48.844 48.844v473.965zM726.518 182.078v23.839h-88.7v-23.839h88.7z" />
<glyph unicode="&#xe619;" glyph-name="global-pageindicator-exam" d="M825.599 207.33c0.314 1.451 0.824 2.706 0.824 4.236v101.464c0 81.814-62.282 148.333-138.881 148.333s-138.881-66.519-138.881-148.333l0.078-88.796c0-60.165-44.751-109.112-99.699-109.112s-99.66 48.947-99.66 109.112v206.144c97.503 7.687 174.768 88.6 174.768 188.063v173.239c0 10.825-8.785 19.61-19.61 19.61h-51.362c-6.423 9.856-17.534 16.377-30.175 16.377-19.882 0-36-16.118-36-36s16.118-36 36-36c12.652 0 23.772 6.532 30.192 16.403h31.735v-153.628c0-82.873-67.42-150.333-150.333-150.333s-150.333 67.46-150.333 150.333v153.627h34.547c6.42-9.87 17.54-16.403 30.192-16.403 19.882 0 36 16.118 36 36s-16.118 36-36 36c-12.641 0-23.753-6.521-30.175-16.377h-54.174c-10.825 0-19.61-8.785-19.61-19.61v-173.238c0-96.13 72.205-174.924 165.119-187.083v-207.125c0-81.814 62.283-148.333 138.881-148.333s138.92 66.518 138.92 148.333l-0.078 88.796c0 60.165 44.751 109.112 99.66 109.112 54.948 0 99.66-48.947 99.66-109.112v-101.464c0-0.588 0.235-0.941 0.314-1.451-33.651-6.746-59.066-36.514-59.066-72.088 0-40.554 32.945-73.539 73.539-73.539 40.515 0 73.539 32.985 73.539 73.539-0.004 32.24-20.987 59.42-49.931 69.304zM802.027 103.709c-18.904 0-34.318 15.453-34.318 34.318s15.414 34.318 34.318 34.318c18.865 0 34.318-15.453 34.318-34.318s-15.453-34.318-34.318-34.318z" />
<glyph unicode="&#xe61a;" glyph-name="ui-launcher-documentv2" d="M732.454 922.616h-506.264l-213.041-190.544v-746.81h506.604v67.024h-431.176v606.777h218.559v196.572h349.89v-207.566h75.428zM625.997 339.863v207.013h160.704v-207.013h220.936v-150.135h-220.936v-207.055h-160.704v207.055h-220.554v150.135z" />
<glyph unicode="&#xe61b;" glyph-name="navicon-submenu-uparrow" d="M519.827 602.302c-4.855 2.584-12.793 2.571-17.639-0.030l-474.376-254.544c-4.847-2.6-4.312-4.728 1.188-4.728h968c5.5 0 6.028 2.114 1.173 4.698l-478.346 254.604z" />
<glyph unicode="&#xe61c;" glyph-name="uparrow" d="M486.898 705.521l-471.314-471.217c-6.497-6.399-9.526-14.704-9.526-23.107s3.029-16.805 9.526-23.107l0.586-0.586c6.106-6.204 14.411-9.526 23.058-9.526h228.72c8.793 0 17 3.322 23.107 9.526l218.852 218.804 218.852-218.804c6.253-6.204 14.606-9.526 23.107-9.526h228.72c8.891 0 17.049 3.322 23.204 9.526l0.635 0.586c6.253 6.009 9.575 14.509 9.575 23.107s-3.322 17-9.575 23.107l-471.314 471.217c-12.897 12.848-33.512 12.848-46.213 0z" />
<glyph unicode="&#xe61d;" glyph-name="leftarrow" d="M264.458 424.437l471.217-471.314c6.399-6.497 14.704-9.526 23.107-9.526s16.805 3.029 23.107 9.526l0.586 0.586c6.204 6.106 9.526 14.411 9.526 23.058v228.72c0 8.793-3.322 17-9.526 23.107l-218.805 218.851 218.804 218.852c6.204 6.253 9.526 14.606 9.526 23.107v228.721c0 8.891-3.322 17.049-9.526 23.204l-0.586 0.635c-6.009 6.253-14.509 9.575-23.107 9.575s-17-3.322-23.107-9.575l-471.216-471.314c-12.848-12.897-12.848-33.512 0-46.213z" />
<glyph unicode="&#xe61e;" glyph-name="downarrow" d="M535.16 187.615l471.314 471.217c6.497 6.399 9.526 14.704 9.526 23.107s-3.029 16.805-9.526 23.107l-0.586 0.586c-6.106 6.204-14.411 9.526-23.058 9.526h-228.72c-8.793 0-17-3.322-23.107-9.526l-218.852-218.805-218.852 218.804c-6.253 6.204-14.606 9.526-23.107 9.526h-228.72c-8.891 0-17.049-3.322-23.204-9.526l-0.635-0.586c-6.253-6.009-9.575-14.509-9.575-23.107s3.322-17 9.575-23.107l471.314-471.217c12.896-12.847 33.511-12.847 46.213 0.001z" />
<glyph unicode="&#xe61f;" glyph-name="newitem" d="M797.1 542.196h-188.619l-58.282 179.361c-22.966 70.763-60.196 70.763-83.162 0l-58.282-179.361h-188.603c-74.345 0-85.877-35.398-25.698-79.105l152.551-110.823-58.266-179.394c-22.966-70.697 7.165-92.617 67.328-48.876l152.551 110.823 152.583-110.823c60.163-43.74 90.294-21.821 67.328 48.876l-58.298 179.394 152.551 110.823c60.195 43.708 48.663 79.105-25.682 79.105z" />
<glyph unicode="&#xe620;" glyph-name="labresults" d="M781.426 186.564h-253.912v372.583h52.798v-242.962c0-57.295 48.134-103.93 107.345-103.93s107.428 46.635 107.428 103.93v410.516c0 11.492-9.369 20.819-20.819 20.819h-173.135c-11.492 0-20.819-9.327-20.819-20.819v-125.915h-147.193v125.915c0 11.492-9.369 20.819-20.819 20.819h-173.093c-11.451 0-20.819-9.327-20.819-20.819v-410.516c0-57.295 48.176-103.93 107.386-103.93 59.252 0 107.345 46.635 107.345 103.93v242.962h52.756v-372.583h-253.913c-11.451 0-20.819-9.327-20.819-20.819 0-11.451 9.369-20.819 20.819-20.819h549.423c11.409 0 20.819 9.369 20.819 20.819 0.042 11.492-9.327 20.819-20.778 20.819zM687.656 253.894c-36.267 0-65.706 27.94-65.706 62.292v40.431h55.379c11.451 0 20.819 9.285 20.819 20.819 0 11.451-9.369 20.819-20.819 20.819h-55.379v59.627h55.379c11.451 0 20.819 9.327 20.819 20.819s-9.369 20.819-20.819 20.819h-55.379v59.668h131.495v-242.962c0-34.392-29.522-62.332-65.789-62.332zM621.95 705.882h131.495v-105.096h-131.495v105.096zM391.438 705.882v-105.096h-131.495v105.096h131.495zM391.438 316.186c0-34.352-29.439-62.292-65.706-62.292s-65.789 27.94-65.789 62.292v40.431h55.379c11.534 0 20.819 9.285 20.819 20.819 0 11.451-9.285 20.819-20.819 20.819h-55.379v59.627h55.379c11.534 0 20.819 9.327 20.819 20.819s-9.285 20.819-20.819 20.819h-55.379v59.668h131.495v-243.002z" />
<glyph unicode="&#xe621;" glyph-name="intro" d="M791.483 510.978l-67.454 157.271 67.464 157.323c0.663 1.587 0.999 3.23 0.999 4.886 0 3.387-1.387 6.658-3.9 9.205-3.293 3.342-8.207 5.258-13.482 5.258h-521.924c-9.748 0-17.383-6.353-17.383-14.463v-324.418c0-8.11 7.635-14.463 17.383-14.463h521.923c5.258 0 10.168 1.912 13.473 5.248 3.841 3.879 4.957 9.291 2.901 14.153zM689.188 663.311l61.259-142.809h-479.878v295.493h479.877l-61.275-142.847c-0.666-1.583-1.004-3.231-1.004-4.899s0.338-3.318 1.021-4.938zM179-11.5c-12.426 0-22.5 10.073-22.5 22.5v808c0 12.426 10.074 22.5 22.5 22.5s22.5-10.074 22.5-22.5v-808c0-12.427-10.074-22.5-22.5-22.5z" />
<glyph unicode="&#xe622;" glyph-name="infoonly" d="M608.974 739.312v-0.439h-14.423c-32.867 0-61.659-17.47-77.811-43.558-16.139 26.074-44.916 43.558-77.798 43.558h-15.26v0.439h-311.026v-545.228h311.026v0.439h15.26c31.481 0 58.681-23.494 63.292-54.605 0.988-6.724 6.766-11.72 13.559-11.72 0.329 0 0.617 0.137 0.919 0.165 0.316-0.027 0.631-0.165 0.933-0.165 6.807 0 12.598 4.954 13.586 11.72 4.611 31.152 31.811 54.605 63.278 54.605h14.451v-0.439h311.040v545.228h-311.026zM503.016 195.511c-16.674 16.413-39.455 26.472-64.074 26.472h-90.176v-0.439h-208.663v490.335h208.663v-0.439h90.176c35.338 0 64.074-28.75 64.074-64.074v-451.855zM892.553 221.53h-173.257v0.439h-124.745c-24.62 0-47.414-10.045-64.088-26.472v451.855c0 35.324 28.764 64.074 64.088 64.074h124.745v0.439h173.257v-490.335z" />
<glyph unicode="&#xe623;" glyph-name="history" d="M329.987 695.603l28.086-16.825c4.756 7.939 17.498 9.062 28.441 2.506s15.965-18.32 11.209-26.259l492.628-295.118c2.353-1.409 4.356-3.131 6.153-4.989 0.524-0.535 0.948-1.115 1.417-1.683 1.259-1.497 2.314-3.093 3.173-4.806 0.197-0.391 0.56-0.714 0.74-1.134l95.334-223.286c4.379-10.258-1.072-19.358-12.183-20.336l-241.869-21.318c-0.436-0.038-0.873 0.132-1.311 0.121-1.903-0.059-3.841 0.125-5.773 0.527-0.702 0.147-1.42 0.238-2.139 0.447-2.48 0.717-4.943 1.672-7.296 3.081l-0.013 0.008-492.628 295.117c-4.756-7.939-17.498-9.062-28.441-2.506s-15.965 18.32-11.209 26.259l0.006 0.010-28.092 16.815c-4.756-7.939-17.498-9.062-28.441-2.506s-15.965 18.32-11.209 26.259l0.006 0.010-94.896 56.849c-10.944 6.556-15.971 18.31-11.209 26.259l146.535 244.604c4.756 7.939 17.498 9.062 28.441 2.506l94.896-56.849c4.756 7.939 17.498 9.062 28.441 2.506s15.959-18.33 11.203-26.269zM900.744 134.777l29.248 48.823-60.453 141.596-40.392-3.568 23.833-55.853c0.105-0.245 0.054-0.449 0.145-0.687 0.785-2.047 1.167-4.048 1.211-5.924 0.002-0.626-0.087-1.225-0.151-1.812-0.159-1.494-0.573-2.875-1.178-4.154-0.157-0.323-0.296-0.644-0.485-0.96-0.178-0.297-0.401-0.58-0.617-0.881-0.829-1.145-1.865-2.153-3.107-2.998-0.493-0.343-0.965-0.712-1.526-0.988-1.68-0.857-3.613-1.445-5.807-1.72-0.252-0.031-0.409-0.172-0.674-0.196l-60.502-5.358 23.851-55.852 0.009-0.045c0.127-0.298 0.112-0.562 0.112-0.562 0.459-1.213 0.637-2.115 0.828-3.024 0.199-0.927 0.385-1.846 0.43-2.759 0.029-0.851-0.092-1.652-0.199-2.461-0.129-0.874-0.265-1.731-0.538-2.518-0.285-0.806-0.703-1.533-1.14-2.262-0.391-0.652-0.794-1.296-1.298-1.867-0.618-0.672-1.376-1.247-2.16-1.807-0.615-0.427-1.203-0.869-1.88-1.219-0.874-0.44-1.854-0.726-2.841-0.995-0.83-0.246-1.64-0.49-2.56-0.616 0 0-0.598-0.189-0.945-0.229l-60.504-5.33 15.925-37.305 153.365 13.531zM776.401 278.282l-444.757 266.44-31.615-52.773 444.75-266.422-12.629 29.585c-1.091 2.556-1.559 5.012-1.496 7.306l0.032 0.203c0.088 2.215 0.654 4.299 1.751 6.13s2.681 3.306 4.579 4.436c0 0 0.109 0.091 0.169 0.133 1.993 1.138 4.399 1.886 7.148 2.128l32.068 2.834zM695.94 143.971l-12.637 29.602c-4.379 10.258 1.085 19.35 12.183 20.336l32.082 2.826-444.77 266.448-31.615-52.773 444.757-266.439zM198.033 735.564l-31.615-52.773 0.145-0.087-17.232-28.765-0.145 0.087-31.615-52.773 0.145-0.087-17.232-28.765-0.145 0.087-31.609-52.764 75.071-44.973 129.303 215.84-75.071 44.973zM312.755 666.838l-129.303-215.84 28.086-16.825 129.302 215.84-28.085 16.825zM380.491 626.26l-31.615-52.773 444.77-266.448-12.65 29.61c-2.1 4.919-2 9.823 0.292 13.649s6.563 6.218 11.896 6.697l32.063 2.825-444.756 266.44z" />
<glyph unicode="&#xe624;" glyph-name="credits" d="M899.308-36.37l-390.732 128.037-386.268-121.398v926.024l777 4.415v-937.078zM509.041 168.333l317.267-103.963v762.922l-631-3.585v-753.976l313.733 98.602zM259.073 714.321h503.471v-33.352h-503.471v33.352zM259.073 579.278h503.471v-33.356h-503.471v33.356zM259.073 444.232h503.471v-33.352h-503.471v33.352zM259.073 309.189h503.471v-33.356h-503.471v33.356z" />
<glyph unicode="&#xe625;" glyph-name="conclusion" d="M141.515 510.978l67.454 157.271-67.464 157.323c-0.663 1.587-0.999 3.23-0.999 4.886 0 3.387 1.387 6.658 3.9 9.205 3.293 3.342 8.207 5.258 13.482 5.258h521.923c9.748 0 17.383-6.353 17.383-14.463v-324.418c0-8.11-7.635-14.463-17.383-14.463h-521.922c-5.258 0-10.168 1.912-13.473 5.248-3.84 3.879-4.957 9.291-2.901 14.153zM243.811 663.311l-61.259-142.809h479.878v295.493h-479.878l61.275-142.847c0.666-1.583 1.004-3.231 1.004-4.899s-0.338-3.318-1.020-4.938zM753.998-11.5c12.426 0 22.5 10.073 22.5 22.5v808c0 12.426-10.074 22.5-22.5 22.5s-22.5-10.074-22.5-22.5v-808c0-12.427 10.074-22.5 22.5-22.5z" />
<glyph unicode="&#xe626;" glyph-name="nav-restart" d="M1018.231 328.99c0 186.543-151.196 337.772-337.722 337.846v0.007h-429.84l69.116 69.133c3.702 3.642 5.684 8.54 5.684 13.784v136.45c0 5.16-1.982 10.112-5.684 13.757l-0.349 0.349c-3.759 3.877-8.771 5.684-13.784 5.684s-9.967-1.807-13.787-5.684l-281.116-281.177c-7.666-7.579-7.666-19.877 0-27.57l281.116-281.177c3.645-3.729 8.657-5.711 13.787-5.711s10.199 1.982 13.784 5.711l0.349 0.38c3.702 3.672 5.684 8.54 5.684 13.844v136.448c0 5.073-1.982 10.055-5.684 13.787l-69.119 69.136h429.709c118.741 0 215-96.256 215-214.997s-96.26-215-215-215c-1.132 0-2.177 0.306-3.306 0.323v-0.45h-480.166v-122.856h511.986v1.565c173.213 14.508 309.342 159.452 309.342 336.418z" />
<glyph unicode="&#xe627;" glyph-name="nav-clipboard" d="M641.68 836.946c-6.849 64.031-60.558 114.244-126.378 114.244s-119.53-50.213-126.379-114.244h-272.277v-894.907h797.354v894.907h-272.32zM515.302 901.34c38.316 0 70.090-27.892 76.525-64.394h-153.050c6.435 36.502 38.209 64.394 76.525 64.394zM839.249 16.793h-647.852v747.519h137.046l-49.835-99.67h473.431l-49.835 99.67h137.046v-747.519z" />
<glyph unicode="&#xe628;" glyph-name="nav-resources" d="M836.22 564.93h-459.928c-32.724 0.525-60.693-10.819-83.914-34.041-21.638-21.638-32.452-47.493-32.452-77.574-0.005-30.086 10.814-55.946 32.452-77.584 23.222-23.222 51.195-34.57 83.914-34.041h324.561c5.276 0 9.503 1.593 12.665 4.756 4.222 4.222 6.335 14.516 6.33 30.864 0 16.362-2.118 26.652-6.34 30.873-3.158 3.158-7.38 4.746-12.66 4.751l-324.557 0.005c-13.724 0.529-24.806 5.014-33.249 13.457-7.656 7.656-11.48 16.493-11.48 26.52s3.828 18.869 11.48 26.52c8.973 8.973 20.049 13.724 33.249 14.254l459.923-0.005c33.249 0.010 60.688-10.804 82.326-32.443 16.897-16.897 25.335-36.421 25.335-58.584-0.010-22.172-8.439-41.697-25.33-58.589-21.638-21.638-49.082-32.447-82.326-32.442l-614.698 0.389c-40.109 0-74.014 13.86-101.719 41.566-27.973 27.973-42.227 61.484-42.752 100.534s13.195 72.561 41.168 100.534c26.914 26.914 60.95 40.633 102.108 41.168l480.114-0.394c5.281-0.005 9.624 1.715 13.059 5.15 4.222 4.222 6.335 14.38 6.33 30.475 0.005 16.095-2.113 26.248-6.335 30.47-3.163 3.163-7.384 4.751-12.655 4.756l-479.327 0.394c-60.163-0.525-111.091-21.633-152.783-63.326-41.954-41.955-62.796-92.090-62.533-150.407s21.376-108.453 63.331-150.407c41.163-41.163 91.823-62.014 151.986-62.539l614.693 0.393c52.769 0.010 96.968 17.81 132.593 53.434 30.873 30.873 46.303 67.164 46.303 108.856 0.010 41.683-15.424 77.978-46.303 108.856-36.155 36.145-80.349 53.94-132.579 53.401z" />
<glyph unicode="&#xe629;" glyph-name="nav-toolkit" d="M947.277 699.35h-224.808v68.555c0 37.839-30.78 68.619-68.619 68.619h-282.071c-37.839 0-68.619-30.78-68.619-68.619v-68.555h-293.405v-594.47h1006.117v594.47h-68.595zM348.906 767.905c0 12.598 10.275 22.873 22.873 22.873h282.071c12.598 0 22.873-10.275 22.873-22.873v-68.555h-327.817v68.555zM947.277 394.342v-220.865h-868.961v125.762l0.059-0.028v170.905h365.821v-99.598h137.238v99.598h365.843v-75.774zM947.277 531.58v-31.928h-365.843v72.913h-137.239v-72.913h-365.82v31.928h-0.059v99.171h868.961v-99.171z" />
<glyph unicode="&#xe62a;" glyph-name="nav-notebook" d="M782.785 872.523v77.473h-33.356v-77.472h-134.535v77.472h-33.356v-77.472h-132.382v77.472h-33.356v-77.472h-134.535v77.472h-33.355v-77.472h-148.91v-929.524h826.281v929.523h-142.496zM847.815 20.463h-671.352v774.638h71.447v-73.017h33.356v73.017h37.215l-0.032-0.066h97.352v-72.951h33.356v72.951h132.382v-72.951h33.356v72.951l134.535 0.066v-73.017h33.356v73.017h65.031v-774.638zM260.525 560.969h503.471v33.352h-503.471v-33.352zM260.525 425.923h503.471v33.356h-503.471v-33.356zM260.525 290.88h503.471v33.352h-503.471v-33.352zM260.525 155.834h503.471v33.356h-503.471v-33.356z" />
<glyph unicode="&#xe62b;" glyph-name="launcher-popuptopic" d="M11.664 796.72h849.057v-849.057h-849.057v849.057zM739.428 675.426l-606.469-0.003v-606.467h606.469v606.47zM163.282 948.337l849.054-0.003v-849.054l-90.97-0.003v758.087h-758.084v90.973zM380.233 150.174v162.033h-157.527v110.714h157.527v162.060h124.231v-162.060h157.582v-110.714h-157.582v-162.033h-124.231z" />
<glyph unicode="&#xe62c;" glyph-name="sidenav-courseoverview" d="M878.287 454.296l-88.684 206.77 88.697 206.837c0.872 2.086 1.313 4.247 1.313 6.423 0 4.453-1.823 8.583-5.128 11.931-4.329 4.394-10.79 6.743-17.725 6.743h-686.189c-12.816 0-22.571-8.012-22.571-18.674v-773.97c0-42.116 33.884-76.196 76-76.196s76 34.080 76 76.196v328.644h556.76c6.913 0 13.368 2.408 17.713 6.794 5.049 5.101 6.517 12.11 3.814 18.502z" />
<glyph unicode="&#xe62d;" glyph-name="sidenav-activityunattempted" d="M511.973 7.149c-243.090 0-440.837 197.775-440.837 440.865s197.747 440.837 440.837 440.837 440.892-197.748 440.892-440.837-197.803-440.865-440.892-440.865zM511.973 776.292c-181.040 0-328.279-147.266-328.279-328.279 0-181.040 147.239-328.306 328.279-328.306s328.333 147.266 328.333 328.306c0 181.013-147.294 328.279-328.333 328.279z" />
<glyph unicode="&#xe62e;" glyph-name="sidenav-activityincomplete" d="M512 892.482c-245.099 0-444.482-199.383-444.482-444.482s199.383-444.482 444.482-444.482 444.482 199.383 444.482 444.482-199.383 444.482-444.482 444.482zM512 778.992c182.536 0 330.992-148.456 330.992-330.992 0-4.793-0.513-9.448-0.72-14.186h-660.544c-0.208 4.738-0.72 9.393-0.72 14.186 0 182.536 148.456 330.992 330.992 330.992z" />
<glyph unicode="&#xe62f;" glyph-name="sidenav-activitycompleted" d="M512 892.358c-245.031 0-444.358-199.327-444.358-444.358s199.327-444.358 444.358-444.358 444.358 199.327 444.358 444.358-199.327 444.358-444.358 444.358zM801.254 529.409l-331.648-331.26c-7.202-7.202-15.941-10.789-26.232-10.789-10.277 0-19.030 3.587-26.218 10.789l-192.056 191.82c-7.202 7.188-10.803 15.927-10.803 26.19 0 10.277 3.601 19.016 10.803 26.204l52.449 52.38c7.202 7.188 15.941 10.789 26.232 10.789 10.277 0 19.016-3.601 26.218-10.789l113.375-113.638 252.981 253.092c7.202 7.188 15.955 10.775 26.232 10.775s19.030-3.587 26.232-10.775l52.435-52.394c7.202-7.188 10.803-15.927 10.803-26.19 0-10.276-3.601-19.002-10.803-26.204z" />
<glyph unicode="&#xe630;" glyph-name="sidenav-elementlocked" d="M400.061 510.852h213.785v94.506c0 14.68-2.906 28.443-8.714 41.289s-13.61 24.009-23.397 33.49c-9.784 9.481-21.102 16.974-33.949 22.48-12.847 5.505-26.608 8.258-41.289 8.258s-28.444-2.753-41.289-8.258c-12.845-5.505-24.162-13.151-33.949-22.938s-17.433-21.103-22.938-33.949-8.258-26.608-8.258-41.289l-0.002-93.589zM863.415 510.852c7.952 0 14.679-2.753 20.186-8.258 5.505-5.505 8.258-12.234 8.258-20.186v-422.066c0-7.952-2.753-14.68-8.258-20.186-5.507-5.505-12.234-8.258-20.186-8.258h-702.83c-7.952 0-14.681 2.753-20.186 8.258s-8.258 12.234-8.258 20.186v422.068c0 7.952 2.753 14.68 8.258 20.186s12.234 8.258 20.186 8.258h87.165v93.586c0 35.478 6.881 69.121 20.645 100.928s32.267 59.334 55.511 82.578c23.244 23.244 50.617 41.748 82.119 55.511s64.992 20.644 100.47 20.644c35.478 0 69.121-6.881 100.929-20.644s59.331-32.267 82.575-55.511c23.247-23.244 41.751-50.77 55.511-82.578s20.646-65.451 20.646-100.928v-93.589l97.259 0.001z" />
<glyph unicode="&#xe631;" glyph-name="sidenav-activityfailed" d="M950.341 211.953l-340.541 589.812c-19.92 34.825-57.488 56.596-97.911 56.596-40.235 0-77.746-21.658-97.901-56.52l-343.273-594.621c-20.117-34.844-20.117-78.141 0-113.003 20.117-34.881 57.647-56.577 97.911-56.577h686.744c62.306 0 113.003 50.716 113.003 113.060-0.028 22.070-6.405 43.653-18.032 61.253zM429.401 651.156c0 20.7 16.783 37.474 37.483 37.474h89.937c20.7 0 37.474-16.774 37.474-37.474v-281.062c0-20.7-16.774-37.474-37.474-37.474h-89.937c-20.7 0-37.483 16.774-37.483 37.474v281.062zM574.355 142.942c-16.868-16.868-37.521-25.302-62.005-25.302-24.475 0-45.128 8.434-61.996 25.302s-25.311 37.568-25.311 62.005c0 24.513 8.443 45.137 25.311 62.005s37.521 25.302 61.996 25.302c24.485 0 45.137-8.434 62.005-25.302s25.311-37.492 25.311-62.005c0-24.438-8.443-45.137-25.311-62.005z" />
<glyph unicode="&#xe632;" glyph-name="status-hint" d="M485.632 836.422v90.666c0 13.959 11.54 25.303 25.702 25.303 14.179 0 25.702-11.344 25.702-25.303v-90.667c0-13.959-11.523-25.303-25.702-25.303-14.163 0.001-25.702 11.345-25.702 25.304zM193.397 688.209c4.839-4.781 11.286-7.396 18.155-7.396 6.87 0 13.316 2.615 18.172 7.413 10.017 9.861 10.017 25.902 0 35.764l-65.143 64.115c-4.856 4.781-11.286 7.396-18.155 7.396-6.87 0-13.333-2.615-18.172-7.413-4.856-4.764-7.529-11.127-7.529-17.857 0-6.763 2.673-13.109 7.529-17.89l65.143-64.132zM152.738 458.125c0 13.959-11.523 25.319-25.685 25.319h-92.096c-14.162 0-25.685-11.36-25.685-25.319 0-13.942 11.523-25.286 25.685-25.286h92.097c14.178 0.016 25.684 11.343 25.684 25.286zM987.693 483.444h-92.096c-14.179 0-25.719-11.36-25.719-25.319 0-13.942 11.54-25.286 25.719-25.286h92.096c14.162 0 25.702 11.344 25.702 25.286 0 13.959-11.54 25.319-25.702 25.319zM811.097 680.813c6.853 0 13.316 2.615 18.172 7.396l65.143 64.148c4.822 4.747 7.496 11.094 7.496 17.857 0 6.73-2.673 13.109-7.529 17.89-4.822 4.764-11.269 7.379-18.138 7.379-6.836 0-13.299-2.615-18.155-7.396l-65.126-64.115c-4.89-4.781-7.513-11.127-7.513-17.857 0-6.763 2.623-13.126 7.513-17.907 4.821-4.796 11.251-7.395 18.137-7.395zM800.023 460.481c0-110.518-64.249-232.205-152.808-294.537v-162.788c0-17.020-11.758-32.048-28.563-36.335l-92.12-23.5c-3.151-0.782-6.353-1.185-9.555-1.185s-6.404 0.403-9.555 1.185l-92.12 23.5c-16.831 4.286-28.563 19.239-28.563 36.335v162.788c-88.534 62.332-152.834 183.994-152.834 294.537 0 153.635 126.986 278.601 283.073 278.601 156.033 0 283.019-124.966 283.045-278.601zM570.926 78.044h-107.875v-45.791l53.925-13.742 53.95 13.742v45.791zM723.683 460.456c0 112.182-92.735 203.485-206.707 203.485-114.074 0-206.81-91.304-206.81-203.485 0-93.22 60.047-200.132 136.72-243.476 14.986-8.422 22.313-25.82 17.881-42.21-0.461-1.714-1.050-3.454-1.768-5.068v-35.276h107.875v35.276c-0.717 1.614-1.255 3.328-1.716 5.068-4.509 16.465 2.844 33.738 17.83 42.21 76.673 43.344 136.72 150.256 136.695 243.476z" />
<glyph unicode="&#xe633;" glyph-name="launcher-feedback" d="M490.623 4.716l-105.014 240.733h-376.926v612.446h1005.317v-612.446h-392.803l-130.574-240.733zM78.015 314.781h352.958l66.421-152.172 82.501 152.172h364.773v473.782h-866.653v-473.782zM315.262 395.658c1.167 0.276 2.322 0.711 3.504 0.804 16.87 1.323 33.261 5.026 48.497 12.274 60.547 28.803 92.606 76.828 93.904 143.982 0.968 50.078 0.191 100.191 0.191 150.288 0 1.426 0 2.852 0 4.166-52.246 0-103.883 0-155.484 0 0-51.87 0-103.41 0-155.45 34.635 0 69.065 0 103.79 0-0.21-21.355-5.791-40.6-17.586-57.765-20.744-30.19-49.942-45.27-86.566-46.741 0-17.452 0-34.505 0-51.559 3.25 0.001 6.5 0.001 9.75 0.001zM575.257 395.658c5.319 0.798 10.676 1.404 15.953 2.424 57.981 11.204 97.955 44.415 120.162 98.97 5.372 13.198 8.259 27.117 9.312 41.373 0.087 1.174 0.539 2.321 0.821 3.48 0 55.249 0 110.498 0 165.747-1.621-0.051-3.242-0.145-4.864-0.145-48.602-0.008-97.203-0.006-145.805-0.006-1.588 0-3.175 0-4.953 0 0-52.045 0-103.676 0-155.694 17.38 0 34.539 0 51.698 0 17.268 0 34.536 0 52.083 0-0.219-21.457-5.804-40.702-17.602-57.866-20.746-30.18-49.941-45.255-86.555-46.725 0-17.455 0-34.507 0-51.558 3.25 0 6.5 0 9.75 0z" />
<glyph unicode="&#xe634;" glyph-name="form-rb1" d="M700 451.144c0-104.461-84.52-189.144-188.781-189.144s-188.781 84.683-188.781 189.144c0 104.461 84.52 189.144 188.781 189.144s188.781-84.683 188.781-189.144z" />
<glyph unicode="&#xe635;" glyph-name="arrow2-up" d="M486.898 705.521l-471.314-471.217c-6.497-6.399-9.526-14.704-9.526-23.107s3.029-16.805 9.526-23.107l0.586-0.586c6.106-6.204 14.411-9.526 23.058-9.526h941.359c8.891 0 17.049 3.322 23.204 9.526l0.635 0.586c6.253 6.009 9.575 14.509 9.575 23.107s-3.322 17-9.575 23.107l-471.315 471.217c-12.897 12.848-33.512 12.848-46.213 0z" />
<glyph unicode="&#xe636;" glyph-name="arrow2-right" d="M782.364 469.699l-471.216 471.314c-6.399 6.497-14.704 9.526-23.107 9.526s-16.805-3.029-23.107-9.526l-0.586-0.586c-6.204-6.106-9.526-14.411-9.526-23.058v-941.358c0-8.891 3.322-17.049 9.526-23.204l0.586-0.635c6.009-6.253 14.509-9.575 23.107-9.575s17 3.322 23.107 9.575l471.217 471.314c12.847 12.896 12.847 33.511-0.001 46.213z" />
<glyph unicode="&#xe637;" glyph-name="arrow2-left" d="M264.458 424.437l471.217-471.314c6.399-6.497 14.704-9.526 23.107-9.526s16.805 3.029 23.107 9.526l0.586 0.586c6.204 6.106 9.526 14.411 9.526 23.058v941.358c0 8.891-3.322 17.049-9.526 23.204l-0.586 0.635c-6.009 6.253-14.509 9.575-23.107 9.575s-17-3.322-23.107-9.575l-471.217-471.314c-12.848-12.897-12.848-33.512 0-46.213z" />
<glyph unicode="&#xe638;" glyph-name="arrow2-down" d="M535.16 187.615l471.314 471.217c6.497 6.399 9.526 14.704 9.526 23.107s-3.029 16.805-9.526 23.107l-0.586 0.586c-6.106 6.204-14.411 9.526-23.058 9.526h-941.358c-8.891 0-17.049-3.322-23.204-9.526l-0.635-0.586c-6.253-6.009-9.575-14.509-9.575-23.107s3.322-17 9.575-23.107l471.314-471.217c12.896-12.848 33.511-12.848 46.213 0z" />
<glyph unicode="&#xe639;" glyph-name="nav-exit" d="M850.696 464.886l-308.046 308.111c-4.184 4.247-9.612 6.227-15.105 6.227s-10.986-1.98-15.105-6.227l-0.383-0.383c-4.056-3.992-6.227-9.421-6.227-15.073v-149.521c0-5.748 2.172-11.113 6.227-15.105l143.038-143.070-143.038-143.070c-4.056-4.088-6.227-9.549-6.227-15.105v-149.521c0-5.812 2.172-11.145 6.227-15.169l0.383-0.415c3.928-4.088 9.485-6.259 15.105-6.259s11.113 2.172 15.105 6.259l308.047 308.111c8.398 8.43 8.398 21.907-0.001 30.21zM271 71v758h423v98h-521v-954h521v98z" />
<glyph unicode="&#xe63a;" glyph-name="nav-finish" d="M955.506 632.683l-504.142-503.552c-10.948-10.948-24.232-16.401-39.875-16.401-15.622 0-28.927 5.453-39.854 16.401l-291.945 291.587c-10.948 10.927-16.422 24.211-16.422 39.812 0 15.622 5.474 28.906 16.422 39.833l79.729 79.624c10.948 10.927 24.232 16.401 39.875 16.401 15.622 0 28.906-5.474 39.854-16.401l172.342-172.742 384.559 384.728c10.948 10.927 24.253 16.379 39.875 16.379s28.927-5.453 39.875-16.379l79.708-79.645c10.948-10.927 16.422-24.211 16.422-39.812-0.001-15.622-5.475-28.885-16.423-39.833z" />
<glyph unicode="&#xe63b;" glyph-name="dashboardbadge-courseassessment" d="M995.111 201.94h-245.577c-11.312 0-20.465 9.153-20.465 20.465s9.153 20.465 20.465 20.465h245.577c11.312 0 20.465-9.153 20.465-20.465s-9.153-20.465-20.465-20.465zM995.111 432.169h-245.577c-11.312 0-20.465 9.153-20.465 20.465 0 11.302 9.153 20.465 20.465 20.465h245.577c11.312 0 20.465-9.163 20.465-20.465 0-11.312-9.153-20.465-20.465-20.465zM995.111 657.281h-245.577c-11.312 0-20.465 9.163-20.465 20.465s9.153 20.465 20.465 20.465h245.577c11.312 0 20.465-9.163 20.465-20.465s-9.153-20.465-20.465-20.465zM598.561 308.917c-44.961 0-78.83-33.869-78.83-78.789 0-44.9 33.849-78.769 78.83-78.769 44.879 0 78.789 33.869 78.789 78.769 0 44.919-33.91 78.789-78.789 78.789zM596.699 491.377c27.355 0 47.209-19.854 47.209-47.21 0-27.344-19.854-47.19-47.209-47.19-27.379 0-47.25 19.846-47.25 47.19 0 27.355 19.872 47.21 47.25 47.21zM596.699 521.511c-44.136 0-77.384-33.248-77.384-77.344 0-44.076 33.228-77.323 77.384-77.323 44.056 0 77.343 33.248 77.343 77.323 0 44.095-33.287 77.344-77.343 77.344v0zM596.809 746.739c-44.961 0-78.83-33.869-78.83-78.789 0-44.9 33.849-78.769 78.83-78.769 44.879 0 78.789 33.869 78.789 78.769 0.001 44.92-33.91 78.789-78.789 78.789zM336.684 319.797c-15.137-25.424-34.547-30.761-48.164-30.761-10.337 0-21.133 3.121-32.088 9.276-7.036 3.887-13.648 5.776-20.211 5.776-6.558 0-13.165-1.887-20.195-5.767-10.956-6.169-21.754-9.297-32.095-9.297-13.599 0-32.994 5.335-48.148 30.73-4.83 8.072-10.537 13.538-17.621 16.738v-197.25l117.012 68.371 117.012-68.371v196.219c-6.122-3.289-11.171-8.426-15.502-15.664zM452.309 565.57c11.711 20.844 7.284 37.318-13.308 49.589-3.845 2.306-7.336 4.813-10.472 7.523-2.091 1.806-4.024 3.703-5.799 5.69-0.888 0.994-1.736 2.010-2.544 3.048-4.044 5.194-7.101 10.955-9.172 17.292s-3.155 13.248-3.251 20.742c-0.073 4.476-0.558 8.54-1.454 12.193-3.883 15.828-15.499 23.916-34.939 24.144-1.495 0.021-2.968 0.082-4.417 0.182-2.899 0.2-5.706 0.558-8.421 1.074-6.789 1.29-13.005 3.566-18.652 6.827-2.259 1.305-4.426 2.767-6.503 4.386s-4.063 3.397-5.958 5.331-3.7 4.026-5.415 6.275c-1.714 2.249-3.339 4.656-4.872 7.219-0.683 1.145-1.384 2.221-2.093 3.266-0.16 0.236-0.32 0.472-0.482 0.703-0.703 1.004-1.416 1.97-2.144 2.878-0.103 0.128-0.208 0.246-0.312 0.372-0.663 0.811-1.338 1.578-2.022 2.31-0.159 0.17-0.317 0.345-0.477 0.511-0.753 0.78-1.519 1.513-2.298 2.198-0.163 0.143-0.328 0.276-0.492 0.416-0.707 0.6-1.424 1.165-2.152 1.688-0.129 0.093-0.257 0.195-0.387 0.285-0.813 0.566-1.64 1.076-2.478 1.546-0.198 0.111-0.397 0.216-0.597 0.322-0.83 0.441-1.669 0.85-2.524 1.198l-0.109 0.049c-0.883 0.356-1.784 0.645-2.694 0.903-0.212 0.060-0.424 0.119-0.638 0.174-0.906 0.232-1.822 0.427-2.754 0.563 0 0-0.243 0.025-0.363 0.041-0.857 0.113-1.726 0.181-2.605 0.212-0.203 0.007-0.406 0.019-0.61 0.022 0 0-0.284 0.016-0.428 0.016-0.852 0-1.715-0.043-2.587-0.118 0 0-0.319-0.041-0.477-0.057-0.87-0.088-1.75-0.215-2.64-0.376-0.3-0.054-0.601-0.114-0.903-0.177-0.869-0.181-1.748-0.395-2.636-0.645-0.198-0.056-0.393-0.1-0.592-0.159-1.073-0.319-2.16-0.694-3.26-1.114-0.272-0.104-0.547-0.223-0.821-0.333-0.867-0.349-1.742-0.728-2.626-1.138-0.321-0.149-0.641-0.296-0.965-0.453-1.139-0.554-2.287-1.141-3.453-1.796-2.605-1.457-5.212-2.732-7.819-3.824-0.978-0.41-1.955-0.794-2.933-1.152-6.845-2.51-13.693-3.764-20.542-3.764-6.6 0-13.2 1.18-19.797 3.511-1.226 0.433-2.452 0.892-3.678 1.406-2.607 1.093-5.213 2.367-7.819 3.824-1.168 0.654-2.317 1.239-3.457 1.792-0.324 0.157-0.646 0.304-0.968 0.453-0.881 0.408-1.754 0.784-2.619 1.131-0.278 0.111-0.559 0.232-0.835 0.337-1.097 0.417-2.182 0.79-3.252 1.108-0.208 0.062-0.411 0.107-0.618 0.165-0.879 0.247-1.749 0.459-2.61 0.638-0.308 0.064-0.616 0.124-0.921 0.18-0.881 0.159-1.754 0.285-2.616 0.372-0.166 0.017-0.335 0.046-0.5 0.060-0.872 0.074-1.735 0.117-2.587 0.117-0.143 0-0.282-0.013-0.424-0.016-0.206-0.003-0.409-0.015-0.614-0.022-0.879-0.032-1.749-0.099-2.607-0.212-0.119-0.016-0.241-0.023-0.36-0.040-0.935-0.136-1.854-0.331-2.764-0.564-0.209-0.053-0.416-0.111-0.623-0.17-0.915-0.258-1.822-0.549-2.711-0.907l-0.068-0.030c-0.87-0.353-1.724-0.769-2.569-1.218-0.193-0.102-0.385-0.204-0.577-0.311-0.843-0.473-1.675-0.985-2.493-1.554-0.123-0.086-0.243-0.182-0.366-0.27-0.738-0.529-1.464-1.1-2.18-1.708-0.158-0.134-0.317-0.261-0.473-0.399-0.783-0.688-1.553-1.424-2.31-2.208-0.155-0.161-0.308-0.331-0.463-0.496-0.689-0.736-1.368-1.508-2.036-2.324-0.101-0.124-0.205-0.239-0.305-0.365-0.729-0.908-1.442-1.875-2.146-2.88-0.161-0.23-0.321-0.466-0.481-0.702-0.709-1.045-1.411-2.121-2.094-3.266-3.061-5.134-6.486-9.638-10.275-13.51-1.895-1.936-3.88-3.714-5.957-5.335-3.115-2.431-6.435-4.506-9.96-6.226-2.35-1.146-4.791-2.135-7.323-2.965s-5.155-1.502-7.869-2.016c-4.071-0.77-8.347-1.185-12.828-1.243-5.967-0.070-11.201-0.884-15.7-2.439-2.25-0.777-4.316-1.74-6.198-2.887s-3.581-2.479-5.095-3.996c-1.136-1.137-2.168-2.378-3.098-3.723-0.929-1.344-1.755-2.792-2.477-4.344-0.481-1.034-0.917-2.114-1.306-3.24s-0.733-2.298-1.030-3.515c-0.892-3.653-1.37-7.717-1.433-12.193-0.092-5.621-0.733-10.912-1.925-15.879-0.397-1.655-0.856-3.275-1.376-4.858-0.832-2.533-1.82-4.975-2.966-7.325s-2.449-4.609-3.908-6.777c-2.19-3.252-4.734-6.3-7.632-9.146-3.864-3.794-8.359-7.23-13.486-10.312-6.426-3.835-11.285-8.077-14.569-12.735-0.493-0.699-0.95-1.407-1.371-2.124-0.843-1.435-1.545-2.907-2.105-4.417-0.28-0.755-0.524-1.519-0.733-2.293-1.114-4.127-1.217-8.523-0.306-13.192 0.91-4.669 2.835-9.61 5.777-14.828 11.711-20.9 11.711-41.744 0-62.588-2.206-3.919-3.841-7.684-4.906-11.296-0.71-2.408-1.166-4.748-1.369-7.020s-0.153-4.476 0.15-6.613c0.227-1.602 0.597-3.167 1.109-4.693s1.166-3.015 1.962-4.465c1.061-1.934 2.375-3.8 3.941-5.599s3.384-3.531 5.455-5.195c2.070-1.665 4.393-3.262 6.967-4.792 1.282-0.763 2.524-1.55 3.727-2.359 3.609-2.427 6.863-5.059 9.763-7.895 0.967-0.946 1.894-1.914 2.782-2.905 4.884-5.451 8.576-11.59 11.080-18.418s3.817-14.345 3.942-22.55c0.042-2.994 0.268-5.805 0.679-8.432 0.205-1.314 0.457-2.581 0.754-3.803 0.595-2.443 1.374-4.702 2.336-6.777 1.444-3.112 3.302-5.809 5.574-8.090 1.515-1.521 3.213-2.857 5.095-4.007 2.823-1.726 6.060-3.034 9.71-3.925s7.713-1.362 12.188-1.415c16.449-0.193 30.117-5.219 41.041-15.005 2.979-2.669 5.754-5.692 8.326-9.068 1.714-2.251 3.339-4.658 4.872-7.221l0.003-0.005c0.682-1.143 1.382-2.217 2.090-3.26 0.16-0.236 0.32-0.472 0.482-0.703 0.702-1.004 1.415-1.969 2.143-2.877 0.104-0.129 0.21-0.248 0.21-0.248 0.768-0.939 1.444-1.708 2.129-2.44 0.156-0.167 0.31-0.339 0.468-0.502 0.755-0.782 1.523-1.516 2.303-2.203 0.16-0.141 0.324-0.272 0.485-0.41 0.715-0.607 1.439-1.177 2.174-1.705 0.122-0.087 0.241-0.183 0.363-0.268 0.816-0.568 1.646-1.079 2.488-1.551 0.194-0.109 0.39-0.212 0.585-0.316 0.853-0.453 1.714-0.874 2.593-1.229l0.036-0.016c0.888-0.358 1.795-0.648 2.71-0.906 0.208-0.059 0.416-0.117 0.625-0.171 0.907-0.232 1.824-0.425 2.757-0.561 0.127-0.018 0.257-0.027 0.384-0.043 0.854-0.111 1.719-0.178 2.594-0.209 0.199-0.007 0.397-0.019 0.597-0.022 0.135-0.002 0.266-0.015 0.402-0.015 0.858 0 1.729 0.044 2.607 0.12 0.178 0.015 0.36 0.046 0.539 0.065 0.85 0.088 1.71 0.213 2.579 0.371 0.307 0.056 0.615 0.117 0.924 0.182 0.864 0.181 1.738 0.396 2.621 0.646 0.201 0.057 0.399 0.102 0.601 0.162 1.070 0.321 2.154 0.697 3.251 1.118 0.279 0.107 0.563 0.23 0.844 0.344 0.861 0.348 1.73 0.726 2.607 1.136 0.323 0.151 0.646 0.299 0.972 0.459 1.139 0.557 2.286 1.146 3.452 1.804 7.816 4.328 15.641 7.034 23.467 8.116 2.609 0.361 5.218 0.541 7.827 0.541 10.436 0 20.872-2.886 31.294-8.657 1.165-0.656 2.312-1.244 3.45-1.799 0.328-0.16 0.652-0.309 0.978-0.46 0.874-0.407 1.739-0.782 2.596-1.128 0.285-0.115 0.572-0.239 0.855-0.347 1.095-0.419 2.178-0.794 3.246-1.114 0.205-0.061 0.406-0.106 0.611-0.164 0.88-0.249 1.751-0.463 2.612-0.643 0.311-0.065 0.62-0.126 0.929-0.182 0.867-0.158 1.725-0.282 2.574-0.37 0.181-0.019 0.365-0.050 0.545-0.066 0.879-0.076 1.75-0.12 2.609-0.12 0.134 0 0.265 0.013 0.265 0.013 0.335 0.005 0.533 0.017 0.732 0.024 0.875 0.031 1.741 0.097 2.595 0.208 0.128 0.017 0.258 0.025 0.258 0.025 1.062 0.154 1.982 0.347 2.891 0.579 0.206 0.052 0.41 0.11 0.614 0.167 0.918 0.258 1.828 0.549 2.72 0.908l0.018 0.008c0.887 0.358 1.756 0.782 2.617 1.239 0.191 0.101 0.381 0.202 0.57 0.308 0.845 0.474 1.68 0.987 2.5 1.558 0.115 0.080 0.227 0.17 0.342 0.252 0.744 0.533 1.476 1.109 2.198 1.723 0.157 0.133 0.315 0.261 0.471 0.398 0.783 0.688 1.553 1.425 2.31 2.209 0.153 0.159 0.304 0.327 0.456 0.49 0.689 0.736 1.368 1.509 2.035 2.326 0.102 0.125 0.206 0.241 0.307 0.367 0.728 0.909 1.441 1.876 2.144 2.882 0.159 0.228 0.317 0.461 0.475 0.695 0.709 1.046 1.409 2.123 2.092 3.27 12.271 20.508 30.313 31.014 54.239 31.294s36.001 12.467 36.393 36.449c0.21 14.919 4.349 27.561 12.431 37.927 1.616 2.073 3.39 4.055 5.322 5.946s4.021 3.691 6.269 5.4c2.247 1.709 4.653 3.327 7.216 4.854 2.57 1.534 4.889 3.134 6.956 4.8s3.882 3.399 5.445 5.199c1.563 1.8 2.875 3.666 3.934 5.599 5.296 9.667 4.292 21.012-3.028 34.074-11.65 20.846-11.65 41.69 0.004 62.59z" />
<glyph unicode="&#xe63c;" glyph-name="dashboardbadge-coursesurvey" d="M23.5 932.33v-678.858h188.599l-0.070-288.471 289.152 288.471h499.242v678.858h-976.923z" />
<glyph unicode="&#xe63d;" glyph-name="dashboardbadge-coursecertificate" d="M674.812 239.123c-24.582-41.372-56.104-50.056-78.219-50.056-16.787 0-34.32 5.079-52.112 15.094-11.427 6.325-22.164 9.399-32.823 9.399-10.651 0-21.38-3.070-32.797-9.385-17.792-10.038-35.329-15.129-52.122-15.129-22.086 0-53.583 8.682-78.193 50.006-7.844 13.135-17.111 22.030-28.617 27.237v-320.979l190.029 111.259 190.029-111.259v319.3c-9.942-5.351-18.142-13.71-25.175-25.487zM862.588 639.061c19.018 33.919 11.83 60.726-21.612 80.694-6.245 3.753-11.914 7.832-17.006 12.242-3.395 2.939-6.534 6.026-9.417 9.259-1.442 1.617-2.819 3.27-4.132 4.961-6.567 8.452-11.533 17.827-14.895 28.139-3.363 10.311-5.123 21.558-5.28 33.754-0.119 7.283-0.906 13.898-2.361 19.841-6.306 25.757-25.171 38.918-56.741 39.288-2.428 0.034-4.82 0.133-7.173 0.295-4.708 0.326-9.266 0.908-13.676 1.747-11.025 2.099-21.12 5.803-30.29 11.11-3.668 2.123-7.189 4.502-10.562 7.138s-6.598 5.527-9.677 8.675c-3.078 3.148-6.009 6.552-8.794 10.212s-5.422 7.576-7.913 11.747c-1.109 1.863-2.248 3.614-3.399 5.314-0.26 0.384-0.52 0.768-0.783 1.144-1.141 1.634-2.299 3.206-3.481 4.684-0.167 0.209-0.338 0.4-0.506 0.605-1.077 1.32-2.173 2.568-3.284 3.759-0.258 0.277-0.515 0.562-0.775 0.832-1.224 1.269-2.467 2.462-3.731 3.576-0.265 0.233-0.533 0.45-0.799 0.676-1.149 0.977-2.313 1.895-3.495 2.747-0.21 0.151-0.417 0.317-0.628 0.465-1.32 0.921-2.663 1.751-4.024 2.516-0.321 0.181-0.645 0.352-0.969 0.524-1.349 0.718-2.711 1.383-4.099 1.95l-0.177 0.079c-1.435 0.579-2.898 1.050-4.375 1.469-0.344 0.098-0.689 0.194-1.036 0.283-1.472 0.377-2.96 0.695-4.473 0.916 0 0-0.394 0.040-0.59 0.066-1.392 0.184-2.803 0.294-4.23 0.346-0.33 0.012-0.659 0.032-0.991 0.037 0 0-0.461 0.025-0.695 0.025-1.383 0-2.786-0.070-4.202-0.191 0 0-0.518-0.067-0.774-0.093-1.413-0.143-2.843-0.349-4.288-0.612-0.487-0.089-0.976-0.186-1.467-0.288-1.412-0.294-2.838-0.643-4.28-1.050-0.322-0.091-0.638-0.162-0.961-0.259-1.742-0.52-3.508-1.129-5.294-1.812-0.441-0.169-0.889-0.363-1.333-0.541-1.408-0.567-2.829-1.184-4.264-1.851-0.521-0.243-1.042-0.482-1.567-0.737-1.85-0.902-3.714-1.856-5.608-2.923-4.231-2.371-8.464-4.445-12.698-6.223-1.588-0.667-3.176-1.292-4.764-1.875-11.116-4.084-22.238-6.126-33.36-6.126-10.719 0-21.437 1.92-32.15 5.713-1.991 0.705-3.983 1.452-5.973 2.288-4.234 1.778-8.467 3.852-12.698 6.223-1.896 1.064-3.763 2.016-5.615 2.916-0.527 0.256-1.048 0.495-1.571 0.737-1.431 0.663-2.848 1.277-4.253 1.841-0.452 0.181-0.907 0.378-1.356 0.549-1.782 0.679-3.543 1.286-5.281 1.803-0.337 0.1-0.667 0.175-1.003 0.269-1.428 0.401-2.84 0.747-4.238 1.038-0.501 0.104-1 0.203-1.496 0.293-1.431 0.259-2.848 0.463-4.248 0.605-0.269 0.027-0.544 0.075-0.812 0.097-1.416 0.121-2.818 0.191-4.201 0.191-0.232 0-0.458-0.022-0.689-0.025-0.334-0.005-0.665-0.025-0.997-0.037-1.428-0.052-2.84-0.161-4.233-0.345-0.194-0.025-0.391-0.038-0.584-0.066-1.519-0.221-3.012-0.539-4.488-0.917-0.339-0.087-0.676-0.181-1.012-0.276-1.486-0.42-2.959-0.893-4.403-1.475l-0.111-0.050c-1.413-0.574-2.8-1.252-4.172-1.982-0.313-0.166-0.626-0.331-0.937-0.506-1.369-0.769-2.721-1.603-4.048-2.528-0.2-0.14-0.395-0.296-0.594-0.439-1.198-0.861-2.377-1.79-3.54-2.78-0.256-0.218-0.514-0.426-0.769-0.649-1.271-1.119-2.521-2.318-3.751-3.593-0.252-0.262-0.501-0.538-0.751-0.806-1.119-1.197-2.222-2.454-3.306-3.782-0.164-0.201-0.332-0.389-0.496-0.593-1.183-1.478-2.342-3.051-3.484-4.687-0.262-0.375-0.522-0.758-0.781-1.142-1.152-1.7-2.291-3.452-3.4-5.315-4.971-8.354-10.533-15.683-16.687-21.984-3.077-3.151-6.302-6.044-9.674-8.681-5.059-3.955-10.45-7.333-16.175-10.131-3.816-1.866-7.78-3.474-11.892-4.825s-8.372-2.444-12.779-3.28c-6.612-1.254-13.556-1.928-20.833-2.022-9.691-0.114-18.191-1.439-25.498-3.969-3.653-1.265-7.009-2.832-10.065-4.699-3.057-1.867-5.815-4.035-8.275-6.502-1.845-1.851-3.522-3.87-5.030-6.058s-2.849-4.544-4.022-7.068c-0.782-1.683-1.489-3.44-2.121-5.273s-1.19-3.739-1.673-5.72c-1.449-5.944-2.224-12.558-2.327-19.841-0.149-9.146-1.191-17.757-3.127-25.839-0.646-2.694-1.39-5.329-2.234-7.906-1.351-4.122-2.956-8.095-4.817-11.92-1.86-3.824-3.976-7.499-6.347-11.027-3.556-5.292-7.688-10.251-12.395-14.882-6.276-6.174-13.575-11.765-21.902-16.78-10.436-6.24-18.326-13.144-23.66-20.723-0.8-1.137-1.542-2.289-2.227-3.456-1.37-2.335-2.509-4.731-3.418-7.188-0.454-1.228-0.851-2.472-1.19-3.732-1.809-6.716-1.976-13.869-0.498-21.466 1.479-7.597 4.604-15.638 9.381-24.129 19.018-34.010 19.018-67.929 0-101.848-3.583-6.377-6.238-12.504-7.967-18.382-1.153-3.918-1.894-7.726-2.223-11.423-0.33-3.697-0.248-7.284 0.244-10.761 0.369-2.607 0.969-5.153 1.8-7.637s1.893-4.906 3.186-7.266c1.724-3.147 3.857-6.184 6.4-9.111 2.543-2.928 5.496-5.745 8.858-8.454s7.134-5.308 11.314-7.798c2.082-1.242 4.099-2.522 6.053-3.838 5.861-3.949 11.146-8.232 15.855-12.848 1.57-1.539 3.076-3.115 4.518-4.727 7.931-8.87 13.928-18.861 17.994-29.972 4.065-11.111 6.199-23.343 6.402-36.695 0.068-4.872 0.436-9.446 1.102-13.721 0.333-2.137 0.741-4.2 1.224-6.188 0.966-3.976 2.231-7.652 3.794-11.028 2.346-5.064 5.363-9.453 9.053-13.165 2.46-2.475 5.218-4.648 8.275-6.521 4.585-2.808 9.842-4.938 15.769-6.387s12.525-2.217 19.794-2.303c26.713-0.314 48.911-8.492 66.651-24.417 4.838-4.343 9.345-9.263 13.521-14.756 2.784-3.662 5.422-7.579 7.913-11.751l0.005-0.008c1.108-1.859 2.244-3.608 3.394-5.305 0.26-0.384 0.52-0.768 0.783-1.144 1.141-1.634 2.298-3.205 3.48-4.682 0.168-0.21 0.341-0.403 0.341-0.403 1.248-1.528 2.345-2.779 3.458-3.971 0.253-0.271 0.504-0.551 0.759-0.816 1.226-1.272 2.473-2.467 3.74-3.584 0.26-0.23 0.525-0.443 0.788-0.667 1.161-0.987 2.337-1.915 3.531-2.774 0.197-0.142 0.391-0.298 0.589-0.436 1.325-0.925 2.674-1.757 4.040-2.525 0.315-0.177 0.633-0.345 0.95-0.514 1.385-0.737 2.784-1.422 4.21-2l0.059-0.027c1.443-0.582 2.915-1.054 4.401-1.474 0.338-0.095 0.675-0.19 1.015-0.278 1.473-0.377 2.963-0.692 4.478-0.912 0.206-0.030 0.417-0.043 0.624-0.070 1.387-0.181 2.792-0.29 4.214-0.34 0.323-0.011 0.645-0.031 0.97-0.036 0.219-0.003 0.433-0.024 0.652-0.024 1.394 0 2.807 0.072 4.234 0.196 0.289 0.025 0.584 0.075 0.875 0.106 1.381 0.143 2.777 0.346 4.189 0.604 0.498 0.091 0.998 0.19 1.5 0.296 1.404 0.295 2.822 0.645 4.256 1.052 0.327 0.093 0.648 0.165 0.976 0.264 1.737 0.522 3.498 1.134 5.279 1.819 0.454 0.174 0.914 0.374 1.37 0.559 1.398 0.567 2.809 1.182 4.234 1.848 0.525 0.246 1.049 0.487 1.578 0.746 1.849 0.906 3.713 1.865 5.606 2.936 12.694 7.044 25.401 11.446 38.111 13.207 4.237 0.587 8.474 0.88 12.711 0.88 16.948 0 33.896-4.696 50.822-14.087 1.892-1.068 3.755-2.024 5.604-2.928 0.532-0.26 1.059-0.503 1.588-0.749 1.419-0.662 2.824-1.273 4.216-1.836 0.462-0.187 0.929-0.389 1.389-0.565 1.778-0.682 3.537-1.292 5.272-1.812 0.333-0.1 0.66-0.173 0.992-0.267 1.429-0.405 2.843-0.753 4.242-1.047 0.504-0.106 1.007-0.205 1.508-0.297 1.408-0.257 2.802-0.459 4.18-0.602 0.294-0.031 0.593-0.081 0.885-0.107 1.428-0.124 2.842-0.196 4.237-0.196 0.218 0 0.431 0.021 0.431 0.021 0.543 0.008 0.865 0.028 1.189 0.039 1.421 0.050 2.827 0.158 4.214 0.339 0.207 0.027 0.419 0.040 0.419 0.040 1.725 0.25 3.218 0.565 4.694 0.943 0.334 0.085 0.666 0.179 0.998 0.272 1.492 0.421 2.969 0.893 4.418 1.477l0.029 0.013c1.441 0.582 2.852 1.273 4.25 2.016 0.309 0.165 0.619 0.328 0.926 0.501 1.373 0.771 2.729 1.606 4.060 2.535 0.187 0.13 0.369 0.277 0.555 0.41 1.208 0.867 2.397 1.805 3.57 2.803 0.255 0.217 0.512 0.425 0.766 0.648 1.271 1.12 2.522 2.319 3.752 3.595 0.249 0.258 0.494 0.532 0.741 0.797 1.119 1.198 2.221 2.456 3.305 3.784 0.165 0.203 0.334 0.392 0.499 0.597 1.183 1.479 2.341 3.053 3.482 4.69 0.259 0.371 0.515 0.751 0.772 1.13 1.151 1.702 2.289 3.456 3.397 5.321 19.928 33.372 49.229 50.468 88.085 50.924s58.466 20.287 59.103 59.312c0.341 24.277 7.063 44.849 20.187 61.717 2.625 3.374 5.506 6.599 8.643 9.676s6.531 6.006 10.181 8.787c3.65 2.781 7.557 5.414 11.72 7.898 4.174 2.496 7.94 5.1 11.297 7.811 3.357 2.712 6.304 5.532 8.843 8.46s4.668 5.965 6.388 9.112c8.601 15.731 6.97 34.192-4.917 55.448-18.934 33.919-18.934 67.838-0.007 101.848z" />
<glyph unicode="&#xe63e;" glyph-name="launcher-subsequence" d="M12.98 795.106h845.128v-845.128h-845.128v845.128zM787.144 724.142l-703.2-0.003v-703.197h703.2v703.2zM163.896 946.022l845.125-0.003v-845.125l-70.642-0.003v774.486h-774.483v70.645zM702.111 637.121l-354.329-0.005 91.48-92.475-279.439-278.462 175.206-177.196 278.935 282.433 88.585-89.091z" />
<glyph unicode="&#xe63f;" glyph-name="launcher-subsequenceendv2" d="M697.235 485.523l-305.115-306.205c-6.626-6.657-14.666-9.973-24.133-9.973-9.454 0-17.507 3.316-24.12 9.973l-176.692 177.311c-6.626 6.644-9.939 14.723-9.939 24.209 0 9.499 3.313 17.578 9.939 24.222l48.253 48.418c6.626 6.644 14.666 9.973 24.133 9.973 9.454 0 17.495-3.329 24.12-9.973l104.305-105.043 232.742 233.95c6.626 6.644 14.679 9.96 24.133 9.96s17.507-3.316 24.133-9.96l48.241-48.431c6.626-6.644 9.939-14.723 9.939-24.209 0-9.499-3.313-17.565-9.939-24.222zM13-50h845v845h-845v-845zM84 724.139l703 0.003v-703.142h-703v703.139zM164 946.022v-71.022h774v-774.109l71 0.003v845.125l-845 0.003z" />
</font>
</defs>
</svg>
